Важное объявление!
У Нас Все раздачи мультитрекерные, при нуле пиров в релизах, можете смело вставать на закачку!
 
Автор Сообщение

HUNTER

Стаж:
4 года 6 месяцев
Сообщений:
60899

Репутация: 101

[+] [-]
Вне форума [Профиль] [ЛС]

Хвост --
Год выпуска: 2012
Страны: Россия
Жанры: комедия, детектив
Продолжительность: 00:44:49
Перевод: Оригинал
Субтитры: нет-Режиссер: Роман Барабаш, Алексей Молочник
В ролях: Наталья Унгард , Максим Студеновский , Владимир Матвеев , Владимир Маслаков , Полина Булычева (Яна), Наталья Голованова (Лариса Снежкова), Мария Иванова (Ирина Петрова), Евгений Катаев (Семен), Борис Клюев , Елена Купрашевич (Марина)
Описание: «Откройте, милиция?» Нет! «Здравствуйте! Я ваша новая соседка!».Когда расследование заходит в тупик, когда следствие не располагает необходимыми данными для того, чтобы уличить злодеев в преступлении, когда вообще непонятно, кто злодей, но по всему видно, что он где-то рядом, — в дело вступает «Коломбо в юбке» — Анна Ивановна Хвостова.Под совершенно разными предлогами в ареале деятельности предполагаемых преступников появляется новая Соседка. Соседка по квартире, дому или даче, соседка сверху, снизу или по лестничной площадке, соседка, которая под разными предлогами внедряется в жизнь самих преступников или их окружения: детей, тещ, свекровей, партнеров по бизнесу, заклятых врагов или верных друзей.Результат ее деятельности — выявление истины. Но поскольку Анна Ивановна не является штатным сотрудником карающих органов, то и отношение к истине у нее свое собственное. Для Анны Ивановны на первом месте всегда — справедливость.
Качество: SATRip
Формат: AVI
Видео кодек: XviD
Аудио кодек: MP3
Видео: 720x416 (16:9), 25.000 fps, XviD, 1 514 Kbps
Аудио: Аудио #1: MP3, 192 Kbps, 48.0 KHz, 2 ch

Рейтинг

Рейтинг:

МедиаИнфо

Код: copyText_writeLink('this.parentNode.parentNode.nextSibling.nextSibling'); General
Complete name : Khvost.(.01.seriya.iz.40.).2012.XviD.IPTVRip-files-x.avi
Format : AVI
Format/Info : Audio Video Interleave
File size : 550 MiB
Duration : 44mn 49s
Overall bit rate : 1 716 Kbps
Writing application : VirtualDubMod 1.5.10.3 | www.virtualdub-fr.org || (build 2550/release)
Writing library : VirtualDubMod build 2550/release
Video
ID : 0
Format : MPEG-4 Visual
Format profile : Advanced Simple@L5
Format settings, BVOP : Yes
Format settings, QPel : No
Format settings, GMC : No warppoints
Format settings, Matrix : Default (H.263)
Codec ID : XVID
Codec ID/Hint : XviD
Duration : 44mn 49s
Bit rate : 1 514 Kbps
Width : 720 pixels
Height : 416 pixels
Display aspect ratio : 16:9
Frame rate : 25.000 fps
Color space : YUV
Chroma subsampling : 4:2:0
Bit depth : 8 bits
Scan type : Progressive
Bits/(Pixel*Frame) : 0.202
Stream size : 485 MiB (88%)
Writing library : XviD 1.2.1 (UTC 2008-12-04)
Audio
ID : 1
Format : MPEG Audio
Format version : Version 1
Format profile : Layer 3
Codec ID : 55
Codec ID/Hint : MP3
Duration : 44mn 49s
Bit rate mode : Constant
Bit rate : 192 Kbps
Channel(s) : 2 channels
Sampling rate : 48.0 KHz
Stream size : 61.5 MiB (11%)
Alignment : Aligned on interleaves
Interleave, duration : 40 ms (1.00 video frame)
Interleave, preload duration : 504 ms
Writing library : LAME3.98r
Encoding settings : -m s -V 4 -q 2 -lowpass 18.6 -b 192

Скриншоты


_________________
Показать сообщения:    

Текущее время: Сегодня 07:16

Часовой пояс: GMT



Вы не можете начинать темы
Вы не можете отвечать на сообщения
Вы не можете редактировать свои сообщения
Вы не можете удалять свои сообщения
Вы не можете голосовать в опросах
Вы не можете прикреплять файлы к сообщениям
Вы не можете скачивать файлы
Наши партнеры: интернет магазин Ивановского трикотажа textilla.ru