Важное объявление!
У Нас Все раздачи мультитрекерные, при нуле пиров в релизах, можете смело вставать на закачку!
 
Автор Сообщение

HUNTER

Стаж:
4 года 7 месяцев
Сообщений:
61449

Репутация: 101

[+] [-]
Вне форума [Профиль] [ЛС]

Харлей Дэвидсон и ковбой Мальборо / Harley Davidson and the Marlboro Man-
Страна: США
Студия: Metro-Goldwyn-Mayer, Krisjair, Laredo
Жанр: Боевик, триллер, драма
Год выпуска: 1991
Продолжительность: 01:38:27
Перевод 1: Профессиональный (многоголосый закадровый) Карусель, Союз
Перевод 2: Профессиональный (многоголосый закадровый) Варус Видео
Перевод 3: Профессиональный (многоголосый закадровый) НТВ
Перевод 4: Профессиональный (двухголосый закадровый) НТВ+ (О. Голованова и Н. Прозоровский)
Перевод 5: Профессиональный (двухголосый закадровый) НТВ+ (Н. Казначеева и И. Тарадайкин)
Перевод 6: Профессиональный (многоголосый закадровый) Лазер Видео
Перевод 7: Профессиональный (двухголосый закадровый) Фортуна Фильм
Перевод 8: Профессиональный (двухголосый закадровый) ОРТ
Перевод 9: Профессиональный (двухголосый закадровый) н/о
Перевод 10: Авторский (одноголосый закадровый) А. Михалев
Перевод 11: Авторский (одноголосый закадровый) А. Гаврилов
Перевод 12: Авторский (одноголосый закадровый) Д. Пучков
Перевод 13: Авторский (одноголосый закадровый) Ю. Живов
Cубтитры: Русские, Английские
Оригинальная аудиодорожка: Английский
Режиссер: Саймон Уинсер / Simon Wincer
В ролях: Микки Рурк, Дон Джонсон, Биг Джон Стадд, Джулиус Харрис, Элой Касадос, Джанкарло Эспозито, Челси Филд, Тиа Каррере, Дэниэл Болдуин, Ванесса Уильямс, Роберт Гинти.
Описание: Ренегат Микки Рурк и невероятно талантливый Дон Джонсон с безудержной мощью и непередаваемым юмором сыграли грубоватых и одновременно сердечных «Робин Гудов» нашего времени. В беззаконном мире конца 80-х некий банк грубо пытается отнять принадлежащий бывшему рокеру бар.
Бродяги Харли Дэвидсон и Ковбой Марльборо решили помочь своему старому другу и ограбить инкассаторов банка. Однако в бронемашине оказываются не деньги, а наркотики. Теперь Рурка и Джонсона преследует банда прихвостней коррумпированного банкира. Скоростные мотоциклы, динамичное действие и мощное современное оружие составляют взрывоопасный рецепт этого футуристического приключенческого фильма.-Рейтинг
-Сэмпл
Тип релиза: BDRip 720p
Контейнер: MKV
Исходник: Harley Davidson and the Marlboro Man 1991 1080p Blu-ray AVC DTS-HD MA 2 0-DinoRider
Видео: 1280x694 (1,85:1), 23.976 fps, x264, ~8715 kbps | Encode by CRiSC
Аудио 1: Russian: 48 kHz, DTS, 2/0 (L,R) ch, ~1509 kbps | Многоголосый закадровый, Карусель, Союз
Аудио 2: Russian: 48 kHz, AC3, 2/0 (L,R) ch, ~192 kbps | Многоголосый закадровый, Варус Видео
Аудио 3: Russian: 48 kHz, AC3, 2/0 (L,R) ch, ~192 kbps | Многоголосый закадровый, НТВ
Аудио 4: Russian: 48 kHz, AC3, 2/0 (L,R) ch, ~384 kbps | Двухголосый закадровый, НТВ+ (О. Голованова и Н. Прозоровский)
Аудио 5: Russian: 48 kHz, AC3, 2/0 (L,R) ch, ~192 kbps | Двухголосый закадровый, НТВ+ (Н. Казначеева и И. Тарадайкин)
Аудио 6: Russian: 48 kHz, AC3, 2/0 (L,R) ch, ~192 kbps | Многоголосый закадровый, Лазер Видео
Аудио 7: Russian: 48 kHz, AC3, 2/0 (L,R) ch, ~192 kbps | Двухголосый закадровый, Фортуна Фильм
Аудио 8: Russian: 48 kHz, AC3, 2/0 (L,R) ch, ~192 kbps | Двухголосый закадровый, ОРТ
Аудио 9: Russian: 48 kHz, AC3, 2/0 (L,R) ch, ~192 kbps | Двухголосый закадровый
Аудио 10: Russian: 48 kHz, DTS, 2/0 (L,R) ch, ~1509 kbps | Одноголосый закадровый, А. Михалев
Аудио 11: Russian: 48 kHz, DTS, 2/0 (L,R) ch, ~1509 kbps | Одноголосый закадровый, А. Гаврилов
Аудио 12: Russian: 48 kHz, DTS, 2/0 (L,R) ch, ~1509 kbps | Одноголосый закадровый, Д. Пучков
Аудио 13: Russian: 48 kHz, AC3, 2/0 (L,R) ch, ~192 kbps | Одноголосый закадровый, Ю. Живов
Аудио 14: English: 48 kHz, DTS, 2/0 (L,R) ch, ~1509 kbps
Субтитры: Русские (Full, Д. Пучков), Английские (Full, SDH)
Формат субтитров: softsub (SRT)

Дополнительно

За дорожку Ю. Живова спасибо shuriken331 и cinemasonar.
За НТВ спасибо Liu Jian.
За Лазер Видео спасибо s___.
Работа со звуком Spiellberg.
Спасибо timur.

MediaInfo

Общее
Unique ID : 211475050833144357462431576611282853599 (0x9F189D0082A303E096795B23B4799EDF)
Complete name : E:\video_rutracker\Harley.Davidson.and.the.Marlboro.Man.1991.720p.BluRay.13.Rus.Eng.x264.mkv
Format : Matroska
Format version : Version 2
File size : 12,8 Гбайт
Duration : 1 ч. 38 м.
Overall bit rate : 18,5 Мбит/сек
Movie name : Harley.Davidson.and.the.Marlboro.Man.1991.720p | RuTracker | igrok2012
Encoded date : UTC 2016-07-22 13:38:47
Writing application : mkvmerge v8.3.0 ('Over the Horizon') 64bit
Writing library : libebml v1.3.1 + libmatroska v1.4.2
Cover : Yes
Attachments : cover.jpg
Видео
ID : 1
Format : AVC
Format/Info : Advanced Video Codec
Format profile : High@L4.1
Format settings, CABAC : Да
Format settings, ReFrames : 9 кадров
Codec ID : V_MPEG4/ISO/AVC
Duration : 1 ч. 38 м.
Bit rate : 8715 Кбит/сек
Width : 1280 пикселей
Height : 694 пикселя
Display aspect ratio : 1,85:1
Frame rate mode : Постоянный
Frame rate : 23,976 (24000/1001) кадра/сек
Color space : YUV
Chroma subsampling : 4:2:0
Bit depth : 8 бит
Scan type : Прогрессивная
Bits/(Pixel*Frame) : 0.409
Stream size : 5,99 Гбайт (47%)
Title : Encode by CRiSC
Writing library : x264 core 148 r2579kMod 73ae2d1
Encoding settings : cabac=1 / ref=9 / deblock=1:-3:-3 / analyse=0x3:0x133 / me=umh / subme=10 / psy=1 / fade_compensate=0.00 / psy_rd=1.05:0.00 / mixed_ref=1 / me_range=64 / chroma_me=1 / trellis=2 / 8x8dct=1 / cqm=0 / deadzone=21,11 / fast_pskip=0 / chroma_qp_offset=-2 / threads=12 / lookahead_threads=2 / sliced_threads=0 / nr=0 / decimate=0 / interlaced=0 / bluray_compat=0 / constrained_intra=0 / fgo=0 / bframes=9 / b_pyramid=2 / b_adapt=2 / b_bias=0 / direct=3 / weightb=1 / open_gop=0 / weightp=2 / keyint=250 / keyint_min=23 / scenecut=40 / intra_refresh=0 / rc_lookahead=40 / rc=crf / mbtree=0 / crf=17.4000 / qcomp=0.70 / qpmin=0 / qpmax=69 / qpstep=4 / vbv_maxrate=50000 / vbv_bufsize=62500 / crf_max=0.0 / nal_hrd=none / filler=0 / ip_ratio=1.10 / pb_ratio=1.10 / aq=1:0.60
Language : English
Default : Да
Forced : Нет
Color range : Limited
Color primaries : BT.709
Transfer characteristics : BT.709
Matrix coefficients : BT.709
Аудио #1
ID : 2
Format : DTS
Format/Info : Digital Theater Systems
Mode : 16
Format settings, Endianness : Big
Codec ID : A_DTS
Duration : 1 ч. 38 м.
Bit rate mode : Постоянный
Bit rate : 1509 Кбит/сек
Channel(s) : 2 канала
Channel positions : Front: L R
Sampling rate : 48,0 КГц
Frame rate : 93,750 кадра/сек (512 spf)
Bit depth : 24 бит
Compression mode : С потерями
Stream size : 1,04 Гбайт (8%)
Title : Многоголосый закадровый, Карусель, Союз
Language : Russian
Default : Да
Forced : Нет
Аудио #2
ID : 3
Format : AC-3
Format/Info : Audio Coding 3
Mode extension : CM (complete main)
Format settings, Endianness : Big
Codec ID : A_AC3
Duration : 1 ч. 38 м.
Bit rate mode : Постоянный
Bit rate : 192 Кбит/сек
Channel(s) : 2 канала
Channel positions : Front: L R
Sampling rate : 48,0 КГц
Frame rate : 31,250 кадров/сек (1536 spf)
Compression mode : С потерями
Stream size : 135 Мбайт (1%)
Title : Многоголосый закадровый, Варус Видео
Language : Russian
Default : Нет
Forced : Нет
Аудио #3
ID : 4
Format : AC-3
Format/Info : Audio Coding 3
Mode extension : CM (complete main)
Format settings, Endianness : Big
Codec ID : A_AC3
Duration : 1 ч. 38 м.
Bit rate mode : Постоянный
Bit rate : 192 Кбит/сек
Channel(s) : 2 канала
Channel positions : Front: L R
Sampling rate : 48,0 КГц
Frame rate : 31,250 кадров/сек (1536 spf)
Compression mode : С потерями
Stream size : 135 Мбайт (1%)
Title : Многоголосый закадровый, НТВ
Language : Russian
Default : Нет
Forced : Нет
Аудио #4
ID : 5
Format : AC-3
Format/Info : Audio Coding 3
Mode extension : CM (complete main)
Format settings, Endianness : Big
Codec ID : A_AC3
Duration : 1 ч. 38 м.
Bit rate mode : Постоянный
Bit rate : 384 Кбит/сек
Channel(s) : 2 канала
Channel positions : Front: L R
Sampling rate : 48,0 КГц
Frame rate : 31,250 кадров/сек (1536 spf)
Compression mode : С потерями
Stream size : 270 Мбайт (2%)
Title : Двухголосый закадровый, НТВ+ (О.Голованова и Н.Прозоровский)
Language : Russian
Default : Нет
Forced : Нет
Аудио #5
ID : 6
Format : AC-3
Format/Info : Audio Coding 3
Mode extension : CM (complete main)
Format settings, Endianness : Big
Codec ID : A_AC3
Duration : 1 ч. 38 м.
Bit rate mode : Постоянный
Bit rate : 192 Кбит/сек
Channel(s) : 2 канала
Channel positions : Front: L R
Sampling rate : 48,0 КГц
Frame rate : 31,250 кадров/сек (1536 spf)
Compression mode : С потерями
Stream size : 135 Мбайт (1%)
Title : Двухголосый закадровый, НТВ+ (Н.Казначеева и И.Тарадайкин)
Language : Russian
Default : Нет
Forced : Нет
Аудио #6
ID : 7
Format : AC-3
Format/Info : Audio Coding 3
Mode extension : CM (complete main)
Format settings, Endianness : Big
Codec ID : A_AC3
Duration : 1 ч. 38 м.
Bit rate mode : Постоянный
Bit rate : 192 Кбит/сек
Channel(s) : 2 канала
Channel positions : Front: L R
Sampling rate : 48,0 КГц
Frame rate : 31,250 кадров/сек (1536 spf)
Compression mode : С потерями
Stream size : 135 Мбайт (1%)
Title : Многоголосый закадровый, Лазер Видео
Language : Russian
Default : Нет
Forced : Нет
Аудио #7
ID : 8
Format : AC-3
Format/Info : Audio Coding 3
Mode extension : CM (complete main)
Format settings, Endianness : Big
Codec ID : A_AC3
Duration : 1 ч. 38 м.
Bit rate mode : Постоянный
Bit rate : 192 Кбит/сек
Channel(s) : 2 канала
Channel positions : Front: L R
Sampling rate : 48,0 КГц
Frame rate : 31,250 кадров/сек (1536 spf)
Compression mode : С потерями
Stream size : 135 Мбайт (1%)
Title : Двухголосый закадровый, Фортуна Фильм
Language : Russian
Default : Нет
Forced : Нет
Аудио #8
ID : 9
Format : AC-3
Format/Info : Audio Coding 3
Mode extension : CM (complete main)
Format settings, Endianness : Big
Codec ID : A_AC3
Duration : 1 ч. 38 м.
Bit rate mode : Постоянный
Bit rate : 192 Кбит/сек
Channel(s) : 2 канала
Channel positions : Front: L R
Sampling rate : 48,0 КГц
Frame rate : 31,250 кадров/сек (1536 spf)
Compression mode : С потерями
Stream size : 135 Мбайт (1%)
Title : Двухголосый закадровый, ОРТ
Language : Russian
Default : Нет
Forced : Нет
Аудио #9
ID : 10
Format : AC-3
Format/Info : Audio Coding 3
Mode extension : CM (complete main)
Format settings, Endianness : Big
Codec ID : A_AC3
Duration : 1 ч. 38 м.
Bit rate mode : Постоянный
Bit rate : 192 Кбит/сек
Channel(s) : 2 канала
Channel positions : Front: L R
Sampling rate : 48,0 КГц
Frame rate : 31,250 кадров/сек (1536 spf)
Compression mode : С потерями
Stream size : 135 Мбайт (1%)
Title : Двухголосый закадровый
Language : Russian
Default : Нет
Forced : Нет
Аудио #10
ID : 11
Format : DTS
Format/Info : Digital Theater Systems
Mode : 16
Format settings, Endianness : Big
Codec ID : A_DTS
Duration : 1 ч. 38 м.
Bit rate mode : Постоянный
Bit rate : 1509 Кбит/сек
Channel(s) : 2 канала
Channel positions : Front: L R
Sampling rate : 48,0 КГц
Frame rate : 93,750 кадра/сек (512 spf)
Bit depth : 24 бит
Compression mode : С потерями
Stream size : 1,04 Гбайт (8%)
Title : Одноголосый закадровый, А.Михалев
Language : Russian
Default : Нет
Forced : Нет
Аудио #11
ID : 12
Format : DTS
Format/Info : Digital Theater Systems
Mode : 16
Format settings, Endianness : Big
Codec ID : A_DTS
Duration : 1 ч. 38 м.
Bit rate mode : Постоянный
Bit rate : 1509 Кбит/сек
Channel(s) : 2 канала
Channel positions : Front: L R
Sampling rate : 48,0 КГц
Frame rate : 93,750 кадра/сек (512 spf)
Bit depth : 24 бит
Compression mode : С потерями
Stream size : 1,04 Гбайт (8%)
Title : Одноголосый закадровый, А.Гаврилов
Language : Russian
Default : Нет
Forced : Нет
Аудио #12
ID : 13
Format : DTS
Format/Info : Digital Theater Systems
Mode : 16
Format settings, Endianness : Big
Codec ID : A_DTS
Duration : 1 ч. 38 м.
Bit rate mode : Постоянный
Bit rate : 1509 Кбит/сек
Channel(s) : 2 канала
Channel positions : Front: L R
Sampling rate : 48,0 КГц
Frame rate : 93,750 кадра/сек (512 spf)
Bit depth : 24 бит
Compression mode : С потерями
Stream size : 1,04 Гбайт (8%)
Title : Одноголосый закадровый, Д. Пучков
Language : Russian
Default : Нет
Forced : Нет
Аудио #13
ID : 14
Format : AC-3
Format/Info : Audio Coding 3
Mode extension : CM (complete main)
Format settings, Endianness : Big
Codec ID : A_AC3
Duration : 1 ч. 38 м.
Bit rate mode : Постоянный
Bit rate : 192 Кбит/сек
Channel(s) : 2 канала
Channel positions : Front: L R
Sampling rate : 48,0 КГц
Frame rate : 31,250 кадров/сек (1536 spf)
Compression mode : С потерями
Stream size : 135 Мбайт (1%)
Title : Одноголосый закадровый, Ю.Живов
Language : Russian
Default : Нет
Forced : Нет
Аудио #14
ID : 15
Format : DTS
Format/Info : Digital Theater Systems
Mode : 16
Format settings, Endianness : Big
Codec ID : A_DTS
Duration : 1 ч. 38 м.
Bit rate mode : Постоянный
Bit rate : 1509 Кбит/сек
Channel(s) : 2 канала
Channel positions : Front: L R
Sampling rate : 48,0 КГц
Frame rate : 93,750 кадра/сек (512 spf)
Bit depth : 24 бит
Compression mode : С потерями
Stream size : 1,04 Гбайт (8%)
Language : English
Default : Нет
Forced : Нет
Текст #1
ID : 16
Format : UTF-8
Codec ID : S_TEXT/UTF8
Codec ID/Info : UTF-8 Plain Text
Language : Russian
Default : Нет
Forced : Нет
Текст #2
ID : 17
Format : UTF-8
Codec ID : S_TEXT/UTF8
Codec ID/Info : UTF-8 Plain Text
Title : Д. Пучков
Language : Russian
Default : Нет
Forced : Нет
Текст #3
ID : 18
Format : UTF-8
Codec ID : S_TEXT/UTF8
Codec ID/Info : UTF-8 Plain Text
Language : English
Default : Нет
Forced : Нет
Текст #4
ID : 19
Format : UTF-8
Codec ID : S_TEXT/UTF8
Codec ID/Info : UTF-8 Plain Text
Title : SDH
Language : English
Default : Нет
Forced : Нет
Меню
00:00:00.000 : en:00:00:00.000
00:04:22.721 : en:00:04:22.721
00:15:50.032 : en:00:15:50.032
00:27:17.052 : en:00:27:17.052
00:45:10.416 : en:00:45:10.416
00:58:38.849 : en:00:58:38.849
01:12:13.079 : en:01:12:13.079
01:34:04.055 : en:01:34:04.055

Скриншоты



_________________
Показать сообщения:    

Текущее время: Сегодня 21:33

Часовой пояс: GMT



Вы не можете начинать темы
Вы не можете отвечать на сообщения
Вы не можете редактировать свои сообщения
Вы не можете удалять свои сообщения
Вы не можете голосовать в опросах
Вы не можете прикреплять файлы к сообщениям
Вы не можете скачивать файлы
Наши партнеры: интернет магазин Ивановского трикотажа textilla.ru