Важное объявление!
У Нас Все раздачи мультитрекерные, при нуле пиров в релизах, можете смело вставать на закачку!
Статистика раздачи
Размер:     |    Зарегистрирован:     |    Скачан:     |   
Нет
 
     
 
 
Автор Сообщение

HUNTER

Стаж:
5 лет 1 месяц
Сообщений:
68439

Репутация: 101

[+] [-]
Вне форума [Профиль] [ЛС]

Харлей Дэвидсон и ковбой Мальборо / Harley Davidson and the Marlboro Man«Когда крутым парням приходится туго, они берут закон в свои руки»
Страна: США
Студия: MGM
Жанр: боевик, триллер, драма
Год выпуска: 1991
Продолжительность: 01:38:27
Перевод: Профессиональный (многоголосый закадровый)|MVO, Варус Видео|
Перевод 2: Профессиональный (многоголосый закадровый)|MVO, Лазер Видео|_(Александр Новиков, Алексей Мясников и Марина Тарасова)_
Перевод 3: Профессиональный (многоголосый, закадровый)|MVO, НТВ|_(А. Новиков, А. Груздев, А. Борзунов и Е. Борзунова)_
Перевод 4: Профессиональный (двухголосый закадровый)|DVO, НТВ+|_(Н. Прозоровский и О. Голованова)_
Перевод 5: Профессиональный (двухголосый закадровый)|DVO, НТВ+|_(И. Тарадайкин и Н. Казначеева)_
Перевод 6: Профессиональный (двухголосый закадровый)|DVO, Фортуна Фильм|
Перевод 7: Профессиональный (двухголосый закадровый)|DVO, ОРТ|
Перевод 8: Профессиональный (двухголосый закадровый)|DVO|
Перевод 9: Авторский (одноголосый закадровый)|Живов, Юрий Викторович|
Перевод 10: Профессиональный (многоголосый, закадровый)|Карусель/Союз|
Перевод 11: Авторский (одноголосый закадровый)|Пучков, Дмитрий Юрьевич|
Перевод 12: Авторский (одноголосый закадровый)|Михалёв, Алексей Михайлович|
Cубтитры: русские, английские
Оригинальная аудиодорожка: английский
Режиссер: Саймон Уинсер / Simon Wincer
В ролях: Микки Рурк, Дон Джонсон, Биг Джон Стадд, Джулиус Харрис, Элой Касадос, Джанкарло Эспозито, Челси Филд, Тиа Каррере, Дэниэл Болдуин, Ванесса Уильямс, Роберт Гинти
Описание: Ренегат Микки Рурк и невероятно талантливый Дон Джонсон с безудержной мощью и непередаваемым юмором сыграли грубоватых и одновременно сердечных «Робин Гудов» нашего времени. В беззаконном мире конца 80-х некий банк грубо пытается отнять принадлежащий бывшему рокеру бар.
Бродяги Харли Дэвидсон и Ковбой Марльборо решили помочь своему старому другу и ограбить инкассаторов банка. Однако в бронемашине оказываются не деньги, а наркотики. Теперь Рурка и Джонсона преследует банда прихвостней коррумпированного банкира. Скоростные мотоциклы, динамичное действие и мощное современное оружие составляют взрывоопасный рецепт этого футуристического приключенческого фильма.
За исходник спасибо Spiellberg(hdclub)

Сэмпл: http://sendfile.su/1149842
Тип релиза: BDRemux 1080p
Контейнер: MKV
Видео: 1920x1080 at 23.976 fps, MPEG-4 AVC, ~ 21999 kbps avg
Аудио: Russian / AC3 / 2.0 / 48 kHz / 192 kbps / 16-bit /|MVO, Варус Видео|
Аудио 2: Russian / AC3 / 2.0 / 48 kHz / 192 kbps / 16-bit /|MVO, Лазер Видео|_(Александр Новиков, Алексей Мясников и Марина Тарасова)_
Аудио 3: Russian / AC3 / 2.0 / 48 kHz / 192 kbps / 16-bit /|MVO, НТВ|_(А. Новиков, А. Груздев, А. Борзунов и Е. Борзунова)_
Аудио 4: Russian / AC3 / 2.0 / 48 kHz / 384 kbps |DVO, НТВ+|_(Н. Прозоровский и О. Голованова)_
Аудио 5: Russian / AC3 / 2.0 / 48 kHz / 192 kbps / 16-bit /|DVO, НТВ+|_(И. Тарадайкин и Н. Казначеева)_
Аудио 6: Russian / AC3 / 2.0 / 48 kHz / 192 kbps / 16-bit /|DVO, Фортуна Фильм|
Аудио 7: Russian / AC3 / 2.0 / 48 kHz / 192 kbps / 16-bit /|DVO, ОРТ|
Аудио 8: Russian / AC3 / 2.0 / 48 kHz / 192 kbps / 16-bit /|DVO|
Аудио 9: Ukrainian / AC3 / 2.0 / 48 kHz / 192 kbps / 16-bit /|Так треба продакшн|
Аудио 10:Ukrainian / AC3 / 2.0 / 48 kHz / 192 kbps / 16-bit / |2+2|
Аудио 11: Russian / AC3 / 2.0 / 48 kHz / 192 kbps / 16-bit /|Живов, Юрий Викторович|
Аудио 12: Russian: / DTS-HD Master Audio / 2107 kbps / 48 kHz / 24-bit (DTS Core: 2.0 / 48 kHz / 1509 kbps / 24-bit)|Карусель/Союз|
Аудио 13: Russian: / DTS-HD Master Audio / 2095 kbps / 48 kHz / 24-bit (DTS Core: 2.0 / 48 kHz / 1509 kbps / 24-bit)|Пучков, Дмитрий Юрьевич|
Аудио 14: Russian: / DTS-HD Master Audio / 2099 kbps / 48 kHz / 24-bit (DTS Core: 2.0 / 48 kHz / 1509 kbps / 24-bit)|Михалёв, Алексей Михайлович|
Аудио 15: English: / DTS-HD Master Audio / 2085 kbps / 48 kHz / 24-bit (DTS Core: 2.0 / 48 kHz / 1509 kbps / 24-bit)|original|
Формат субтитров: softsub (SRT)

MediaInfo

Общее
Уникальный идентификатор : 189410698375127211920673978983325624224 (0x8E7F2C6FA8F27DA88379B4A9C373E7A0)
Полное имя : D:\MOVIE\Harley Davidson and the Marlboro Man_1991г_Donnie Wayne_[Don]_Johnson & Philip Andre Rourke, Jr\Harley Davidson and the Marlboro Man_1991г_Donnie Wayne_[Don]_Johnson & Philip Andre Rourke, Jr..mkv
Формат : Matroska
Версия формата : Version 4 / Version 2
Размер файла : 22,4 Гбайт
Продолжительность : 1 ч. 38 м.
Режим общего битрейта : Переменный
Общий поток : 32,6 Мбит/сек
Название фильма : Harley Davidson and the Marlboro Man_1991г_Donnie Wayne_[Don]_Johnson & Philip Andre Rourke, Jr.
Дата кодирования : UTC 2015-08-27 15:53:44
Программа кодирования : mkvmerge v6.9.1 ('Blue Panther') 64bit built on Apr 18 2014 18:23:38
Библиотека кодирования : libebml v1.3.0 + libmatroska v1.4.1
Видео
Идентификатор : 1
Формат : AVC
Формат/Информация : Advanced Video Codec
Профиль формата : High@L4.1
Параметр CABAC формата : Да
Параметр ReFrames формата : 4 кадра
Идентификатор кодека : V_MPEG4/ISO/AVC
Продолжительность : 1 ч. 38 м.
Вид битрейта : Переменный
Максимальный битрейт : 25,0 Мбит/сек
Ширина : 1920 пикселей
Высота : 1080 пикселей
Соотношение сторон : 16:9
Режим частоты кадров : Постоянный
Частота кадров : 23,976 кадра/сек
Цветовое пространство : YUV
Субдискретизация насыщенности : 4:2:0
Битовая глубина : 8 бит
Тип развёртки : Прогрессивная
Заголовок : Harley Davidson and the Marlboro Man_1991г_Donnie Wayne_[Don]_Johnson & Philip Andre Rourke, Jr.
Язык : English
Default : Да
Forced : Нет
Аудио #1
Идентификатор : 2
Формат : AC-3
Формат/Информация : Audio Coding 3
Расширение режима : CM (complete main)
Параметр Endianness формата : Big
Идентификатор кодека : A_AC3
Продолжительность : 1 ч. 38 м.
Вид битрейта : Постоянный
Битрейт : 192 Кбит/сек
Каналы : 2 канала
Расположение каналов : Front: L R
Частота : 48,0 КГц
Битовая глубина : 16 бит
Метод сжатия : С потерями
Размер потока : 135 Мбайт (1%)
Заголовок : |MVO, Варус Видео|
Язык : Russian
Default : Да
Forced : Нет
Аудио #2
Идентификатор : 3
Формат : AC-3
Формат/Информация : Audio Coding 3
Расширение режима : CM (complete main)
Параметр Endianness формата : Big
Идентификатор кодека : A_AC3
Продолжительность : 1 ч. 38 м.
Вид битрейта : Постоянный
Битрейт : 192 Кбит/сек
Каналы : 2 канала
Расположение каналов : Front: L R
Частота : 48,0 КГц
Битовая глубина : 16 бит
Метод сжатия : С потерями
Размер потока : 135 Мбайт (1%)
Заголовок : |MVO, Лазер Видео|
Язык : Russian
Default : Нет
Forced : Нет
Аудио #3
Идентификатор : 4
Формат : AC-3
Формат/Информация : Audio Coding 3
Расширение режима : CM (complete main)
Параметр Endianness формата : Big
Идентификатор кодека : A_AC3
Продолжительность : 1 ч. 38 м.
Вид битрейта : Постоянный
Битрейт : 192 Кбит/сек
Каналы : 2 канала
Расположение каналов : Front: L R
Частота : 48,0 КГц
Битовая глубина : 16 бит
Метод сжатия : С потерями
Размер потока : 135 Мбайт (1%)
Заголовок : |MVO, НТВ|_(А. Новиков, А. Груздев, А. Борзунов и Е. Борзунова)_
Язык : Russian
Default : Нет
Forced : Нет
Аудио #4
Идентификатор : 5
Формат : AC-3
Формат/Информация : Audio Coding 3
Расширение режима : CM (complete main)
Параметр Endianness формата : Big
Идентификатор кодека : A_AC3
Продолжительность : 1 ч. 38 м.
Вид битрейта : Постоянный
Битрейт : 384 Кбит/сек
Каналы : 2 канала
Расположение каналов : Front: L R
Частота : 48,0 КГц
Битовая глубина : 16 бит
Метод сжатия : С потерями
Размер потока : 270 Мбайт (1%)
Заголовок : |DVO, НТВ+|_(Н. Прозоровский и О. Голованова)_
Язык : Russian
Default : Нет
Forced : Нет
Аудио #5
Идентификатор : 6
Формат : AC-3
Формат/Информация : Audio Coding 3
Расширение режима : CM (complete main)
Параметр Endianness формата : Big
Идентификатор кодека : A_AC3
Продолжительность : 1 ч. 38 м.
Вид битрейта : Постоянный
Битрейт : 192 Кбит/сек
Каналы : 2 канала
Расположение каналов : Front: L R
Частота : 48,0 КГц
Битовая глубина : 16 бит
Метод сжатия : С потерями
Размер потока : 135 Мбайт (1%)
Заголовок : |DVO, НТВ+|_(И. Тарадайкин и Н. Казначеева)_
Язык : Russian
Default : Нет
Forced : Нет
Аудио #6
Идентификатор : 7
Формат : AC-3
Формат/Информация : Audio Coding 3
Расширение режима : CM (complete main)
Параметр Endianness формата : Big
Идентификатор кодека : A_AC3
Продолжительность : 1 ч. 38 м.
Вид битрейта : Постоянный
Битрейт : 192 Кбит/сек
Каналы : 2 канала
Расположение каналов : Front: L R
Частота : 48,0 КГц
Битовая глубина : 16 бит
Метод сжатия : С потерями
Размер потока : 135 Мбайт (1%)
Заголовок : |DVO, Фортуна Фильм|
Язык : Russian
Default : Нет
Forced : Нет
Аудио #7
Идентификатор : 8
Формат : AC-3
Формат/Информация : Audio Coding 3
Расширение режима : CM (complete main)
Параметр Endianness формата : Big
Идентификатор кодека : A_AC3
Продолжительность : 1 ч. 38 м.
Вид битрейта : Постоянный
Битрейт : 192 Кбит/сек
Каналы : 2 канала
Расположение каналов : Front: L R
Частота : 48,0 КГц
Битовая глубина : 16 бит
Метод сжатия : С потерями
Размер потока : 135 Мбайт (1%)
Заголовок : |DVO, ОРТ|
Язык : Russian
Default : Нет
Forced : Нет
Аудио #8
Идентификатор : 9
Формат : AC-3
Формат/Информация : Audio Coding 3
Расширение режима : CM (complete main)
Параметр Endianness формата : Big
Идентификатор кодека : A_AC3
Продолжительность : 1 ч. 38 м.
Вид битрейта : Постоянный
Битрейт : 192 Кбит/сек
Каналы : 2 канала
Расположение каналов : Front: L R
Частота : 48,0 КГц
Битовая глубина : 16 бит
Метод сжатия : С потерями
Размер потока : 135 Мбайт (1%)
Заголовок : |DVO|
Язык : Russian
Default : Нет
Forced : Нет
Аудио #9
Идентификатор : 10
Формат : AC-3
Формат/Информация : Audio Coding 3
Расширение режима : CM (complete main)
Параметр Endianness формата : Big
Идентификатор кодека : A_AC3
Продолжительность : 1 ч. 38 м.
Вид битрейта : Постоянный
Битрейт : 192 Кбит/сек
Каналы : 2 канала
Расположение каналов : Front: L R
Частота : 48,0 КГц
Битовая глубина : 16 бит
Метод сжатия : С потерями
Размер потока : 135 Мбайт (1%)
Заголовок : |MVO, Так треба продакшн|
Язык : Ukrainian
Default : Нет
Forced : Нет
Аудио #10
Идентификатор : 11
Формат : AC-3
Формат/Информация : Audio Coding 3
Расширение режима : CM (complete main)
Параметр Endianness формата : Big
Идентификатор кодека : A_AC3
Продолжительность : 1 ч. 38 м.
Вид битрейта : Постоянный
Битрейт : 192 Кбит/сек
Каналы : 2 канала
Расположение каналов : Front: L R
Частота : 48,0 КГц
Битовая глубина : 16 бит
Метод сжатия : С потерями
Размер потока : 135 Мбайт (1%)
Заголовок : |DVO, 2+2|
Язык : Ukrainian
Default : Нет
Forced : Нет
Аудио #11
Идентификатор : 12
Формат : AC-3
Формат/Информация : Audio Coding 3
Расширение режима : CM (complete main)
Параметр Endianness формата : Big
Идентификатор кодека : A_AC3
Продолжительность : 1 ч. 38 м.
Вид битрейта : Постоянный
Битрейт : 192 Кбит/сек
Каналы : 2 канала
Расположение каналов : Front: L R
Частота : 48,0 КГц
Битовая глубина : 16 бит
Метод сжатия : С потерями
Размер потока : 135 Мбайт (1%)
Заголовок : |Живов, Юрий Викторович|
Язык : Russian
Default : Нет
Forced : Нет
Аудио #12
Идентификатор : 13
Формат : DTS
Формат/Информация : Digital Theater Systems
Профиль формата : MA / Core
Режим : 16
Параметр Endianness формата : Big
Идентификатор кодека : A_DTS
Продолжительность : 1 ч. 38 м.
Вид битрейта : Переменный
Битрейт : Неизвестно / 1509 Кбит/сек
Каналы : 2 канала
Расположение каналов : Front: L R
Частота : 48,0 КГц
Битовая глубина : 24 бит
Метод сжатия : Без потерь / Lossy
Заголовок : |MVO, Карусель/Союз|
Язык : Russian
Default : Нет
Forced : Нет
Аудио #13
Идентификатор : 14
Формат : DTS
Формат/Информация : Digital Theater Systems
Профиль формата : MA / Core
Режим : 16
Параметр Endianness формата : Big
Идентификатор кодека : A_DTS
Продолжительность : 1 ч. 38 м.
Вид битрейта : Переменный
Битрейт : Неизвестно / 1509 Кбит/сек
Каналы : 2 канала
Расположение каналов : Front: L R
Частота : 48,0 КГц
Битовая глубина : 24 бит
Метод сжатия : Без потерь / Lossy
Заголовок : |Пучков, Дмитрий Юрьевич|
Язык : Russian
Default : Нет
Forced : Нет
Аудио #14
Идентификатор : 15
Формат : DTS
Формат/Информация : Digital Theater Systems
Профиль формата : MA / Core
Режим : 16
Параметр Endianness формата : Big
Идентификатор кодека : A_DTS
Продолжительность : 1 ч. 38 м.
Вид битрейта : Переменный
Битрейт : Неизвестно / 1509 Кбит/сек
Каналы : 2 канала
Расположение каналов : Front: L R
Частота : 48,0 КГц
Битовая глубина : 24 бит
Метод сжатия : Без потерь / Lossy
Заголовок : |Михалёв, Алексей Михайлович|
Язык : Russian
Default : Нет
Forced : Нет
Аудио #15
Идентификатор : 16
Формат : DTS
Формат/Информация : Digital Theater Systems
Профиль формата : MA / Core
Режим : 16
Параметр Endianness формата : Big
Идентификатор кодека : A_DTS
Продолжительность : 1 ч. 38 м.
Вид битрейта : Переменный
Битрейт : Неизвестно / 1509 Кбит/сек
Каналы : 2 канала
Расположение каналов : Front: L R
Частота : 48,0 КГц
Битовая глубина : 24 бит
Метод сжатия : Без потерь / Lossy
Заголовок : |original|
Язык : English
Default : Нет
Forced : Нет
Текст #1
Идентификатор : 17
Формат : UTF-8
Идентификатор кодека : S_TEXT/UTF8
Идентификатор кодека/Информация : UTF-8 Plain Text
Заголовок : full
Язык : Russian
Default : Нет
Forced : Нет
Текст #2
Идентификатор : 18
Формат : UTF-8
Идентификатор кодека : S_TEXT/UTF8
Идентификатор кодека/Информация : UTF-8 Plain Text
Заголовок : Пучков, Дмитрий Юрьевич
Язык : Russian
Default : Нет
Forced : Нет
Текст #3
Идентификатор : 19
Формат : UTF-8
Идентификатор кодека : S_TEXT/UTF8
Идентификатор кодека/Информация : UTF-8 Plain Text
Заголовок : full
Язык : English
Default : Нет
Forced : Нет
Текст #4
Идентификатор : 20
Формат : UTF-8
Идентификатор кодека : S_TEXT/UTF8
Идентификатор кодека/Информация : UTF-8 Plain Text
Заголовок : SDH_full
Язык : English
Default : Нет
Forced : Нет
Меню
00:00:00.000 : :Chapter 01
00:04:22.720 : :Chapter 02
00:15:50.032 : :Chapter 03
00:27:17.049 : :Chapter 04
00:45:10.416 : :Chapter 05
00:58:38.847 : :Chapter 06
01:12:13.078 : :Chapter 07
01:34:04.055 : :Chapter 08

Скриншоты


Интересные Факты

В фильме практически все персонажи названы в честь известных торговых брэндов: Харли Дэвидсон — мотоцикл, ковбой Мальборо — сигареты, Вирджиния Слим — сигареты, Джек Дэниэлс — виски, Олд Грэндэд — виски. А вот Джанкарло Эспозито играет героя по имении Джими, который назван так в честь Джими Хендрикса; соответственно, и внешне он на него очень похож.
На 19-ой минуте фильма, когда Ковбой Мальборо заходит в бар и здоровается с Хосе, сзади них можно заметить постер фильма «День, когда остановилась Земля»(1951).
Сцена на «самолётном кладбище» снималась на военно-воздушной базе Дэвис-Монтан (штат Аризона), являющейся крупнейшим в США местом консервации боевых самолётов.

Промо Кадры

Цитата:
Цитата:

Лазер Видео, текст читали Александр Новиков, Алексей Мясников и Марина Тарасова.
За предоставленный постер к раздаче спасибо огромное Нурмухаметову, Данису Василовичу.
Данный релиз не имеет ничего общего с тем что было до этого распространено по сети, все составляющие собраны лично Spiellberg(hdclub).
Дорожки №12,13,14 получены путем наложения чистых голосов на L,R каналы оригинального DTS-HD MA.
За дорожку Живова спасибо shuriken331 и cinemasonar, за НТВ спасибо Liu Jian, за Лазер Видео спасибо s___, за украинске дорожки спасибо трекеру Гуртом

_________________
Показать сообщения:    

Текущее время: Сегодня 06:00

Часовой пояс: GMT



Вы не можете начинать темы
Вы не можете отвечать на сообщения
Вы не можете редактировать свои сообщения
Вы не можете удалять свои сообщения
Вы не можете голосовать в опросах
Вы не можете прикреплять файлы к сообщениям
Вы не можете скачивать файлы