Хаос / Chaos (Тони Гиглио) [2005 г., боевик, триллер, драма, криминал, BDRip] Dub :: Ивановский Торрент трекер
Важное объявление!
У Нас Все раздачи мультитрекерные, при нуле пиров в релизах, можете смело вставать на закачку!
 
Автор Сообщение

mihis

[Профиль] [ЛС]

Хаос / Chaos
Год выпуска: 2005
Страна: США, Канада, Великобритания, Dinsdale Releasing
Жанр: боевик, триллер, драма, криминал
Продолжительность: 01:46:21
Перевод: Профессиональный (полное дублирование) + Оригинал
Cубтитры: Русские (отдельно) + Английские - 2 вида (отдельно)
Режиссер: Тони Гиглио
В ролях: Джейсон Стэтхэм, Райан Филипп, Уэсли Снайпс, Генри Черни, Джастин Уоддэлл, Николас Лиа, Джессика Стин, Роб ЛаБелль, Джон Кассини, Дэймон Джонсон
Описание: Самым обычным утром банда грабителей захватывает банк и берет в заложники всех, кто в нем находится. Полиция окружает здание банка. Вожак банды Лоренц требует вызвать переговорщика, настаивая на том, что им может быть только детектив Коннерс. А так как Коннерс числится в полиции «на плохом счету», к нему приставляют напарника — новичка Деккера.
Пока Коннерс ведет переговоры, в банк врывается полицейский спецназ. В начавшемся хаосе грабителям удается смешаться с заложниками и выскользнуть из банка. Но самым странным оказалось то, что грабители не унесли с собой ни единого цента. А вскоре выясняется, что во время осады и перестрелки с банковских счетов компьютерным способом был снят миллиард долларов. Распутывая это дело, Коннерс и Деккер нащупывают нити заговора, ведущие на самый «верх»

Качество: BDRip
Формат: AVI
Видео кодек: XviD
Аудио кодек: AC3
Видео: 720x304 (2.37:1), 23.976 fps, XviD MPEG-4 ~2035 kbps avg, 0.39 bit/pixel
Аудио #1: 48 kHz, AC3 Dolby Digital, 3/2 (L,C,R,l,r) + LFE ch, ~448 kbps Rus
Аудио #2: 48 kHz, AC3 Dolby Digital, 3/2 (L,C,R,l,r) + LFE ch, ~448 kbps Eng

MediaInfo

Общее
Полное имя : F:\Video\Haos.2005.DUAL.BDRip.XviD.AC3.HELLYWOOD\Haos.2005.DUAL.BDRip.XviD.AC3.HELLYWOOD.avi
Формат : AVI
Формат/Информация : Audio Video Interleave
Профиль формата : OpenDML
Размер файла : 2,18 Гбайт
Продолжительность : 1 ч. 46 м.
Общий поток : 2938 Кбит/сек
Название фильма : Хаос / Chaos (2005) BDRip
Режиссёр : olger
Программа кодирования : VirtualDubMod 1.5.10.2 (build 2542/release)
Правообладатель : www.hellywood.ru
Примечание : BD-Remux (1080p)
Видео
Идентификатор : 0
Формат : MPEG-4 Visual
Профиль формата : Advanced Simple@L5
Параметр BVOP формата : 1
Параметр QPel формата : Нет
Параметр GMC формата : Без точки перехода
Параметр матрицы формата : Default (MPEG)
Идентификатор кодека : XVID
Идентификатор кодека/Подсказка : XviD
Продолжительность : 1 ч. 46 м.
Битрейт : 2024 Кбит/сек
Ширина : 720 пикселей
Высота : 304 пикселя
Соотношение сторон : 2,35:1
Частота кадров : 23,976 кадра/сек
Цветовое пространство : YUV
Субдискретизация насыщенности : 4:2:0
Битовая глубина : 8 бит
Тип развёртки : Прогрессивная
Метод сжатия : С потерями
Бит/(Пиксели*Кадры) : 0.386
Размер потока : 1,50 Гбайт (69%)
Библиотека кодирования : XviD 1.2.1 (UTC 2008-12-04)
Аудио #1
Идентификатор : 1
Формат : AC-3
Формат/Информация : Audio Coding 3
Расширение режима : CM (complete main)
Параметр Endianness формата : Big
Идентификатор кодека : 2000
Продолжительность : 1 ч. 46 м.
Вид битрейта : Постоянный
Битрейт : 448 Кбит/сек
Каналы : 6 каналов
Расположение каналов : Front: L C R, Side: L R, LFE
Частота : 48,0 КГц
Битовая глубина : 16 бит
Метод сжатия : С потерями
Размер потока : 341 Мбайт (15%)
Выравнивание : Разделение по промежуткам
Продолжительность промежутка : 42 мс. (1,00 видеокадр)
Время предзагрузки промежутка : 500 мс.
Аудио #2
Идентификатор : 2
Формат : AC-3
Формат/Информация : Audio Coding 3
Расширение режима : CM (complete main)
Параметр Endianness формата : Big
Идентификатор кодека : 2000
Продолжительность : 1 ч. 46 м.
Вид битрейта : Постоянный
Битрейт : 448 Кбит/сек
Каналы : 6 каналов
Расположение каналов : Front: L C R, Side: L R, LFE
Частота : 48,0 КГц
Битовая глубина : 16 бит
Метод сжатия : С потерями
Размер потока : 341 Мбайт (15%)
Выравнивание : Разделение по промежуткам
Продолжительность промежутка : 42 мс. (1,00 видеокадр)
Время предзагрузки промежутка : 500 мс.
 
Показать сообщения:    

Текущее время: Сегодня 21:00

Часовой пояс: GMT



Вы не можете начинать темы
Вы не можете отвечать на сообщения
Вы не можете редактировать свои сообщения
Вы не можете удалять свои сообщения
Вы не можете голосовать в опросах
Вы не можете прикреплять файлы к сообщениям
Вы не можете скачивать файлы