Важное объявление!
У Нас Все раздачи мультитрекерные, при нуле пиров в релизах, можете смело вставать на закачку!
 
Автор Сообщение

димитри37

Стаж:
4 года 2 месяца
Сообщений:
1236

Репутация: 127

[+] [-]
Вне форума [Профиль] [ЛС]

Хайтарма / Haytarma
Страна: Украина
Жанр: Военный, драма, история
Год выпуска: 2013
Продолжительность: 01:25:30
Перевод: Не требуется
Cубтитры: нет
Оригинальная аудиодорожка: русский
Режиссер: Ахтем Сейтаблаев
В ролях: Ахтем Сейтаблаев, Алексей Горбунов, Усние Халилова, Андрей Мостренко, Андрей Саминин, Валерий Шаповалов, Юрий Цурило, Леся Самаева, Алексей Тритенко, Дмитрий Суржиков
Описание: Фильм рассказывает о трагической дате в истории крымскотатарского народа — 18 мая 1944 года — сталинской депортации крымских татар. В центре сюжета фильма — летчик, дважды герой Советского Союза, Аметхан Султан. В мае 44-го года после осовобождения Севастополя Аметхан отправляется в отпуск в родную Алупку. На его глазах 18 мая и начинается депортация крымских татар.

Качество видео: WEB-DLRip
Формат видео: AVI
Видео: XviD, 2120 Кбит/с, 720x400, 25fps
Аудио: MP3, 2 ch, 160 Кбит/с

MediaInfo

General
Complete name : Xaitarma.2012.O.WEBRip.avi
Format : AVI
Format/Info : Audio Video Interleave
File size : 1.37 GiB
Duration : 1h 25mn
Overall bit rate : 2 290 Kbps
Writing application : VirtualDubMod 1.5.10.3 | www.virtualdub-fr.org || (build 2550/release)
Writing library : VirtualDubMod build 2550/release
Video
ID : 0
Format : MPEG-4 Visual
Format profile : Advanced Simple@L5
Format settings, BVOP : 2
Format settings, QPel : No
Format settings, GMC : No warppoints
Format settings, Matrix : Default (MPEG)
Muxing mode : Packed bitstream
Codec ID : XVID
Codec ID/Hint : XviD
Duration : 1h 25mn
Bit rate : 2 121 Kbps
Width : 720 pixels
Height : 400 pixels
Display aspect ratio : 16:9
Frame rate : 25.000 fps
Color space : YUV
Chroma subsampling : 4:2:0
Bit depth : 8 bits
Scan type : Interlaced
Scan order : Bottom Field First
Compression mode : Lossy
Bits/(Pixel*Frame) : 0.295
Stream size : 1.27 GiB (93%)
Writing library : XviD 64
Audio
ID : 1
Format : MPEG Audio
Format version : Version 1
Format profile : Layer 3
Mode : Joint stereo
Mode extension : MS Stereo
Codec ID : 55
Codec ID/Hint : MP3
Duration : 1h 25mn
Bit rate mode : Constant
Bit rate : 160 Kbps
Channel(s) : 2 channels
Sampling rate : 48.0 KHz
Compression mode : Lossy
Stream size : 97.9 MiB (7%)
Alignment : Aligned on interleaves
Interleave, duration : 40 ms (1.00 video frame)
Interleave, preload duration : 504 ms
Writing library : LAME3.99r
Encoding settings : -m j -V 4 -q 2 -lowpass 17.5 -b 160

Скриншот c названием фильма

Скриншоты




-
Показать сообщения:    

Текущее время: Сегодня 21:33

Часовой пояс: GMT



Вы не можете начинать темы
Вы не можете отвечать на сообщения
Вы не можете редактировать свои сообщения
Вы не можете удалять свои сообщения
Вы не можете голосовать в опросах
Вы не можете прикреплять файлы к сообщениям
Вы не можете скачивать файлы