Хад / Hud (Мартин Ритт / Martin Ritt) [1963, США, драма, WEB-DL 720p] MVO + Sub Eng + Original Eng :: Ивановский Торрент трекер
Важное объявление!
У Нас Все раздачи мультитрекерные, при нуле пиров в релизах, можете смело вставать на закачку!
Статистика раздачи
Размер:     |    Зарегистрирован:     |    Скачан:     |   
Нет
 
     
 
 
Автор Сообщение

HUNTER

Стаж:
4 года 11 месяцев
Сообщений:
66052

Репутация: 101

[+] [-]
Вне форума [Профиль] [ЛС]

Хад / Hud
Страна: США
Студия: Paramount Pictures, Salem-Dover Productions
Жанр: драма
Год выпуска: 1963
Продолжительность: 01:51:40
Перевод: Профессиональный (многоголосый закадровый)
Cубтитры: английские
Оригинальная аудиодорожка: английский
Режиссер: Мартин Ритт / Martin Ritt
В ролях: Пол Ньюман, Мелвин Дуглас, Патриция Нил, Брендон Де Уайлд, Уит Бисселл, Крэхан Дентон, Джон Эшли, Вэл Эйвери, Джордж Петри, Курт Конуэй
Описание: Молодой владелец ранчо в Техасе Хад Бэннон привык потакать своим желаниям, волочиться за замужними дамами и пропивать то, что потом и кровью заработал его отец.
Старый Хомер глубоко презирает своего сына за аморальность и безответственность. Только Богу известно к чему приведет долголетнее противостояние этих людей.
Кинопоиск|Imdb|Сэмпл
Тип релиза: WEB-DL 720p
Контейнер: MKV
Видео: MPEG4 Video (H264) 1280x544 23.976fps 3 954 Kbps
Аудио: Russian AC-3 2 ch 48.0 KHz 256 Kbps
Аудио 2: English AC-3 6 ch 48.0 KHz 384 Kbps
Формат субтитров: softsub (SRT)

MediaInfo

General
Unique ID : 199564486218237614471272831104969027436 (0x9622B8D3F8280A0F8FB20597D1172F6C)
Complete name : C:\Users\Вика\Desktop\Hud.1963.720p.WEB-DL.DD5.1.H.264-ViGi.mkv
Format : Matroska
Format version : Version 4 / Version 2
File size : 3.66 GiB
Duration : 1h 51mn
Overall bit rate : 4 688 Kbps
Encoded date : UTC 2014-08-02 04:13:31
Writing application : mkvmerge v6.9.1 ('Blue Panther') 64bit built on Apr 18 2014 18:23:38
Writing library : libebml v1.3.0 + libmatroska v1.4.1
Video
ID : 1
Format : AVC
Format/Info : Advanced Video Codec
Format profile : Main@L3.1
Format settings, CABAC : No
Format settings, ReFrames : 2 frames
Codec ID : V_MPEG4/ISO/AVC
Duration : 1h 51mn
Bit rate : 3 954 Kbps
Width : 1 280 pixels
Height : 544 pixels
Display aspect ratio : 2.35:1
Frame rate mode : Constant
Frame rate : 23.976 fps
Color space : YUV
Chroma subsampling : 4:2:0
Bit depth : 8 bits
Scan type : Progressive
Bits/(Pixel*Frame) : 0.237
Stream size : 3.08 GiB (84%)
Language : English
Default : Yes
Forced : No
Color primaries : BT.709
Transfer characteristics : BT.709
Matrix coefficients : BT.709
Audio #1
ID : 2
Format : AC-3
Format/Info : Audio Coding 3
Mode extension : CM (complete main)
Format settings, Endianness : Big
Codec ID : A_AC3
Duration : 1h 51mn
Bit rate mode : Constant
Bit rate : 256 Kbps
Channel count : 2 channels
Channel positions : Front: L R
Sampling rate : 48.0 KHz
Bit depth : 16 bits
Compression mode : Lossy
Stream size : 205 MiB (5%)
Title : MVO
Language : Russian
Default : Yes
Forced : No
Audio #2
ID : 3
Format : AC-3
Format/Info : Audio Coding 3
Mode extension : CM (complete main)
Format settings, Endianness : Big
Codec ID : A_AC3
Duration : 1h 51mn
Bit rate mode : Constant
Bit rate : 384 Kbps
Channel count : 6 channels
Channel positions : Front: L C R, Side: L R, LFE
Sampling rate : 48.0 KHz
Bit depth : 16 bits
Compression mode : Lossy
Stream size : 307 MiB (8%)
Language : English
Default : No
Forced : No
Text
ID : 4
Format : UTF-8
Codec ID : S_TEXT/UTF8
Codec ID/Info : UTF-8 Plain Text
Language : English
Default : Yes
Forced : No
Menu
00:00:00.000 : en:Opening Credits
00:02:24.000 : en:Looking For Hud
00:11:08.000 : en:The Law According To Hud
00:17:03.000 : en:After Dinner Plans
00:28:05.000 : en:An Unprincipled Man
00:34:21.000 : en:Texas Longhorn Legacy
00:37:36.000 : en:It Happens To Everybody
00:41:59.000 : en:What Else You Good At?
00:45:56.000 : en:Quarantined
00:56:06.000 : en:I Don't Like Pigs!
01:01:08.000 : en:Family Feelings
01:12:26.000 : en:Going Bad, In The Face Of Good
01:18:01.000 : en:He Was Just So Drunk
01:21:28.000 : en:The Only Cure Is Death
01:30:42.000 : en:End Of A Legacy
01:36:14.000 : en:Two Separate Goodbyes
01:40:09.000 : en:Having Lost The Will To Live
01:46:53.000 : en:I Won't Be Back This Way

Скриншоты


_________________
Показать сообщения:    

Текущее время: Сегодня 20:38

Часовой пояс: GMT



Вы не можете начинать темы
Вы не можете отвечать на сообщения
Вы не можете редактировать свои сообщения
Вы не можете удалять свои сообщения
Вы не можете голосовать в опросах
Вы не можете прикреплять файлы к сообщениям
Вы не можете скачивать файлы