Важное объявление!
У Нас Все раздачи мультитрекерные, при нуле пиров в релизах, можете смело вставать на закачку!
 
Автор Сообщение

HUNTER

Стаж:
4 года 8 месяцев
Сообщений:
62034

Репутация: 101

[+] [-]
Вне форума [Профиль] [ЛС]

Футбольный видеотренер - Дриблинг и финты-

Год выпуска: 2000
Страна: USA
Сайт производителя: отсутствует
Тематика: Футбол
Тип материала: обучающая видеопрограмма-Продолжительность: 01:10:09
Автор: Хьюберт Вогельзингер-Язык: Русский - Профессиональный (одноголосый)
Субтитры: отсутствуют-Описание: Огромное количество молодых футболистов во всех странах мира с наслаждением учатся основам футбольной техники по методике популярного тренера по футболу Губерта Фогельзингера. Сейчас эту возможность получили и Вы. Ведь серия “Футбольный видеотренер” – это пропуск в мир большого футбола.
В регионах РФ не достаточно специализированных футбольных школ и обученных футбольных тренеров. Обучающее видео не решает данной трудности, но находит выход из сложившейся ситуации – ребенок с огромным желанием начнет заниматься футболом и будет играть классно!
-Качество: VHSRip
Формат: AVI
Видео кодек: DivX
Аудио кодек: MP3
Видео: 640x480 (1.33:1), 23.976 fps, DivX Codec 4.x ~1100 kbps avg, 0.15 bit/pixel
Аудио: 44.100 kHz, MPEG Layer 3, 2 ch, ~128.00 kbps avg-

Доп. информация

"ДРИБЛИНГ и ФИНТЫ" - в динамичной и увлекательной форме с помощью поэтапного метода научит Вас обращаться мастерски с мячом, использовать скорость и частую смену направлений движения. Вы освоите обманные движения - финты, и другие хитрые приемы игры, которые помогут Вам не только обыграть соперника, но и доставить истинное наслаждение футбольным болельщикам.

MediaInfo

Код: copyText_writeLink('this.parentNode.parentNode.nextSibling.nextSibling'); General
Complete name : E:\Обучение\dribling_finti\Видеотренер. Дриблинг и финты. (Губерт Фогельзингер)_split1.avi
Format : AVI
Format/Info : Audio Video Interleave
File size : 623 MiB
Duration : 1h 10mn
Overall bit rate : 1 241 Kbps
Writing application : Lavf52.32.0
Video
ID : 0
Format : MPEG-4 Visual
Format profile : Simple@L1
Format settings, BVOP : No
Format settings, QPel : No
Format settings, GMC : No warppoints
Format settings, Matrix : Default (H.263)
Codec ID : DIVX
Codec ID/Info : Project Mayo
Codec ID/Hint : DivX 4
Duration : 1h 10mn
Bit rate : 1 101 Kbps
Width : 640 pixels
Height : 480 pixels
Display aspect ratio : 4:3
Frame rate : 23.976 fps
Color space : YUV
Chroma subsampling : 4:2:0
Bit depth : 8 bits
Scan type : Progressive
Compression mode : Lossy
Bits/(Pixel*Frame) : 0.149
Stream size : 552 MiB (89%)
Writing library : Lavc52.22.3
Audio
ID : 1
Format : MPEG Audio
Format version : Version 1
Format profile : Layer 3
Mode : Joint stereo
Mode extension : MS Stereo
Codec ID : 55
Codec ID/Hint : MP3
Duration : 1h 10mn
Bit rate mode : Constant
Bit rate : 128 Kbps
Channel(s) : 2 channels
Sampling rate : 44.1 KHz
Compression mode : Lossy
Stream size : 64.2 MiB (10%)
Alignment : Aligned on interleaves
Interleave, duration : 26 ms (0.63 video frame)
Writing library : LAME3.98.2
- -

_________________
Показать сообщения:    

Текущее время: Сегодня 23:48

Часовой пояс: GMT



Вы не можете начинать темы
Вы не можете отвечать на сообщения
Вы не можете редактировать свои сообщения
Вы не можете удалять свои сообщения
Вы не можете голосовать в опросах
Вы не можете прикреплять файлы к сообщениям
Вы не можете скачивать файлы
Наши партнеры: интернет магазин Ивановского трикотажа textilla.ru