Важное объявление!
У Нас Все раздачи мультитрекерные, при нуле пиров в релизах, можете смело вставать на закачку!
 
Автор Сообщение

HUNTER

Стаж:
4 года 11 месяцев
Сообщений:
66045

Репутация: 101

[+] [-]
Вне форума [Профиль] [ЛС]

Фронтовые истории любимых актёров
Год выпуска: 2013
Страна: Россия
Жанр: Документальный
Продолжительность: 01:16:05
Перевод: Не требуется
Режиссер: Юлия Панасенко
Описание: Они не думали стать солдатами, к военной карьере себя не готовили, мечтали совсем о другом. Но война есть война. И вот в 1941 вместе с миллионами советских людей они ушли на фронт. Они воевали поистине героически - об этом говорят их ордена и медали, а также сухие казенные тексты наградных листов. Они были ранены , но им повезло: они выстояли, они выжили… Они победители! А после 1945-го осуществилась их заветная мечта: они стали актёрами. Но что бы ни делала с ними жизнь, они всегда помнили о войне, и эта память возвращала их к чему-то очень важному и очень личному. В фильме рассказывается о военной истории наших любимых артистов, а также и о том, как отразилась война на их дальнейшей творческой судьбе.
Качество: SATRip
Формат: AVI
Видео: XviD, 720x416, (1.73:1), 1474 kbps avg, 25 fps, 0.19 bit/pixel
Аудио: 48 kHz, Audio Coding 3, 2 ch, ~192.00 kbps avg
Релиз: ValkiriaGF

Советую посмотреть

http://rutracker.org/forum/viewtopic.php?t=4551883

MediaInfo

General
Complete name : K:\Фронтовые истории любимых актёров.2013.Satrip.avi
Format : AVI
Format/Info : Audio Video Interleave
File size : 912 MiB
Duration : 1h 16mn
Overall bit rate : 1 675 Kbps
Video
ID : 0
Format : MPEG-4 Visual
Format profile : Advanced Simple@L5
Format settings, BVOP : 2
Format settings, QPel : No
Format settings, GMC : No warppoints
Format settings, Matrix : Default (H.263)
Codec ID : XVID
Codec ID/Hint : XviD
Duration : 1h 16mn
Bit rate : 1 473 Kbps
Width : 720 pixels
Height : 416 pixels
Display aspect ratio : 1.731
Frame rate : 25.000 fps
Color space : YUV
Chroma subsampling : 4:2:0
Bit depth : 8 bits
Scan type : Progressive
Compression mode : Lossy
Bits/(Pixel*Frame) : 0.197
Stream size : 802 MiB (88%)
Writing library : XviD 1.2.1 (UTC 2008-12-04)
Audio
ID : 1
Format : AC-3
Format/Info : Audio Coding 3
Mode extension : CM (complete main)
Format settings, Endianness : Big
Codec ID : 2000
Duration : 1h 16mn
Bit rate mode : Constant
Bit rate : 192 Kbps
Channel(s) : 2 channels
Channel positions : Front: L R
Sampling rate : 48.0 KHz
Bit depth : 16 bits
Compression mode : Lossy
Stream size : 104 MiB (11%)
Alignment : Split accross interleaves
Interleave, duration : 40 ms (1.00 video frame)
Interleave, preload duration : 500 ms

Скриншоты


_________________
Показать сообщения:    

Текущее время: Сегодня 11:21

Часовой пояс: GMT



Вы не можете начинать темы
Вы не можете отвечать на сообщения
Вы не можете редактировать свои сообщения
Вы не можете удалять свои сообщения
Вы не можете голосовать в опросах
Вы не можете прикреплять файлы к сообщениям
Вы не можете скачивать файлы