Важное объявление!
У Нас Все раздачи мультитрекерные, при нуле пиров в релизах, можете смело вставать на закачку!
 
Автор Сообщение

HUNTER

Стаж:
4 года 5 месяцев
Сообщений:
60886

Репутация: 101

[+] [-]
Вне форума [Профиль] [ЛС]

-Френни / The Benefactor
«His help comes at a price»-
-Страна: США
Жанр: драма
Год выпуска: 2015
Продолжительность: 01:32:45-Перевод: Любительский (многоголосый закадровый) Parovoz Production-Cубтитры: английские
Оригинальная аудиодорожка: английская-Режиссер: Эндрю Ренци / Andrew Renzi-В ролях: Лаура Харт, Тео Джеймс, Дакота Фэннинг, Ричард Гир, Кларк Питерс, Мария Брейман, Марко Кака, Эрика Линн Арден, Брайан Энтони Уилсон, Лиза Робертс-Описание: Главный герой — филантроп, который, чтобы побороть собственное отчаяние, ставит своей целью наладить отношения молодой пары Оливии и Луки, в которые он отчаянно влезает.- - -Тип релиза: BDRip 1080p
Контейнер: MKV-Видео: MPEG-4 AVC, 1920x800 (2.40:1), 23.976 fps, ~13400 kbps avg, 0.364 bit/pixel
Аудио 1: 48 kHz, AC3 Dolby Digital, 2/0 (L,R) ch, ~192 kbps avg
Аудио 2: 48 kHz, DTS, 3/2 (L,C,R,l,r) + LFE ch, ~1509 kbps avg-

MediaInfo

Complete name : D:\РАЗДАЧИ\The Benefactor (2015) BDRip 1080p.mkv
Format : Matroska
Format version : Version 2
File size : 9.99 GiB
Duration : 1h 32mn
Overall bit rate : 15.4 Mbps
Movie name : The Benefactor (2015) BDRip 1080p
Encoded date : UTC 2016-03-14 13:19:05
Writing application : mkvmerge v3.0.0 ('Hang up your Hang-Ups') built on Dec 12 2009 15:20:35
Writing library : libebml v0.7.9 + libmatroska v0.8.1
Cover : Yes
Attachments : cover.png
Video
ID : 1
Format : AVC
Format/Info : Advanced Video Codec
Format profile : High@L4.1
Format settings, CABAC : Yes
Format settings, ReFrames : 5 frames
Codec ID : V_MPEG4/ISO/AVC
Duration : 1h 32mn
Bit rate : 13.4 Mbps
Width : 1 920 pixels
Height : 800 pixels
Display aspect ratio : 2.40:1
Frame rate mode : Constant
Frame rate : 23.976 (24000/1001) fps
Color space : YUV
Chroma subsampling : 4:2:0
Bit depth : 8 bits
Scan type : Progressive
Bits/(Pixel*Frame) : 0.364
Stream size : 8.69 GiB (87%)
Writing library : x264 core 146 r2538 121396c
Encoding settings : cabac=1 / ref=5 / deblock=1:-3:-3 / analyse=0x3:0x133 / me=umh / subme=11 / psy=1 / psy_rd=1.00:0.00 / mixed_ref=1 / me_range=32 / chroma_me=1 / trellis=2 / 8x8dct=1 / cqm=0 / deadzone=21,11 / fast_pskip=0 / chroma_qp_offset=-2 / threads=16 / lookahead_threads=4 / sliced_threads=0 / nr=0 / decimate=0 / interlaced=0 / bluray_compat=0 / constrained_intra=0 / bframes=11 / b_pyramid=2 / b_adapt=2 / b_bias=0 / direct=3 / weightb=1 / open_gop=0 / weightp=2 / keyint=240 / keyint_min=23 / scenecut=40 / intra_refresh=0 / rc_lookahead=150 / rc=crf / mbtree=0 / crf=18.5 / qcomp=0.60 / qpmin=0 / qpmax=69 / qpstep=4 / vbv_maxrate=62500 / vbv_bufsize=78125 / crf_max=0.0 / nal_hrd=none / filler=0 / ip_ratio=1.40 / pb_ratio=1.30 / aq=1:0.80
Default : No
Forced : No
Audio #1
ID : 2
Format : AC-3
Format/Info : Audio Coding 3
Mode extension : CM (complete main)
Format settings, Endianness : Big
Codec ID : A_AC3
Duration : 1h 32mn
Bit rate mode : Constant
Bit rate : 192 Kbps
Channel(s) : 2 channels
Channel positions : Front: L R
Sampling rate : 48.0 KHz
Frame rate : 31.250 fps (1536 spf)
Compression mode : Lossy
Stream size : 127 MiB (1%)
Title : Parovoz Production
Language : Russian
Default : Yes
Forced : No
Audio #2
ID : 3
Format : DTS
Format/Info : Digital Theater Systems
Mode : 16
Format settings, Endianness : Big
Codec ID : A_DTS
Duration : 1h 32mn
Bit rate mode : Constant
Bit rate : 1 509 Kbps
Channel(s) : 6 channels
Channel positions : Front: L C R, Side: L R, LFE
Sampling rate : 48.0 KHz
Frame rate : 93.750 fps (512 spf)
Bit depth : 24 bits
Compression mode : Lossy
Stream size : 1 001 MiB (10%)
Title : Original
Language : English
Default : No
Forced : No
Text
ID : 4
Format : UTF-8
Codec ID : S_TEXT/UTF8
Codec ID/Info : UTF-8 Plain Text
Title : English
Language : English
Default : No
Forced : No
Menu
00:00:00.000 : en:Chapter 1
00:05:31.873 : en:Chapter 2
00:10:50.400 : en:Chapter 3
00:15:53.703 : en:Chapter 4
00:21:56.398 : en:Chapter 5
00:28:05.559 : en:Chapter 6
00:35:13.069 : en:Chapter 7
00:41:57.598 : en:Chapter 8
00:46:15.856 : en:Chapter 9
00:51:46.395 : en:Chapter 10
00:57:00.292 : en:Chapter 11
01:02:34.668 : en:Chapter 12
01:08:34.360 : en:Chapter 13
01:14:16.869 : en:Chapter 14
01:20:08.554 : en:Chapter 15
01:25:00.512 : en:Chapter 16

Скриншоты


_________________
Показать сообщения:    

Текущее время: Сегодня 12:49

Часовой пояс: GMT



Вы не можете начинать темы
Вы не можете отвечать на сообщения
Вы не можете редактировать свои сообщения
Вы не можете удалять свои сообщения
Вы не можете голосовать в опросах
Вы не можете прикреплять файлы к сообщениям
Вы не можете скачивать файлы
Наши партнеры: интернет магазин Ивановского трикотажа textilla.ru