Ивановский Торрент трекер
Яндекс.Погода
 

[Цитировать]
HUNTER

Французский связной / The French Connection
Страна: США
Студия: 20th Century Fox
Жанр: криминальная драма, боевик
Год выпуска: 1971
Продолжительность: 1:43:41
Перевод: Профессиональный (двухголосый закадровый)
Cубтитры: Русские (Psychotechnic), английские
Оригинальная аудиодорожка: английский
Режиссер: Уильям Фридкин / William Friedkin
В ролях: Джин Хэкмэн, Фернандо Рей, Рой Шайдер, Энтони Ло Бьянко, Марсель Боццуфи
Описание: Давно ставший классикой боевик по книге Робина Мура о схватке полиции и героиновой мафии. Сюжет фильма крутится вокруг поимки нью-йоркскими стражами порядка банды преступников, занимающихся транспортировкой наркотиков из Франции. Полицейский Попай — его так прозвали в честь героя известного мультфильма — уверенно идет по следу гангстеров, попадая в самую гущу жизни огромного города.
Доп. информация: ВНИМАНИЕ Торрент обновлен, в 12-м году вышел ремастеринг данного фильма, теперь его можно смотреть, не испытывая рвотных позывов, в этот раз качество вполне приличное для фильма 71-го года. Теперь рип с нового трансфера, так же добавлена новая озвучка, не столь отвратная как раньше, плюс отдельно пару авторских переводов.
Но главное, я решил самостоятельно перевести субтитры, в итоге, на мой взгляд, вышло отлично, по смыслу гораздо лучше всяких озвучек, поэтому прошу любить и жаловать!
Рейтинг Rotten Tomatoes: 98%
Тип релиза: BDRip 720p
Контейнер: MKV
Видео: x264, 1280x696p, 23.976 fps, 6020 Kbps
Аудио: DTS 5.1 48000Hz 1510Kbps (Английский, оригинал)
Аудио 2: AC3 5.1 48000Hz 448Kbps (Русский, двухголосый закадровый)
Формат субтитров: softsub (SRT)

MediaInfo

General
Unique ID : 183635774631858577557080323067907616354 (0x8A26F6B6834684B284D5504E871B2E62)
Complete name : C:\Users\schta_000.SUPERCOMP\Videos\The.French.Connection.1971.REMASTERED.720p.BluRay.x264\The.French.Connection.1971.REMASTERED.720p.BluRay.X264.mkv
Format : Matroska
Format version : Version 4 / Version 2
File size : 5.79 GiB
Duration : 1h 43mn
Overall bit rate : 7 975 Kbps
Encoded date : UTC 2014-03-15 08:40:36
Writing application : mkvmerge v6.8.0 ('Theme for Great Cities') 64bit built on Mar 2 2014 21:34:26
Writing library : libebml v1.3.0 + libmatroska v1.4.1
Video
ID : 1
Format : AVC
Format/Info : Advanced Video Codec
Format profile : High@L4.1
Format settings, CABAC : Yes
Format settings, ReFrames : 5 frames
Codec ID : V_MPEG4/ISO/AVC
Duration : 1h 43mn
Bit rate : 6 020 Kbps
Width : 1 280 pixels
Height : 696 pixels
Display aspect ratio : 1.85:1
Frame rate mode : Constant
Frame rate : 23.976 fps
Color space : YUV
Chroma subsampling : 4:2:0
Bit depth : 8 bits
Scan type : Progressive
Bits/(Pixel*Frame) : 0.282
Stream size : 4.25 GiB (73%)
Writing library : x264 core 120 r2164 da19765
Encoding settings : cabac=1 / ref=5 / deblock=1:0:0 / analyse=0x3:0x113 / me=umh / subme=8 / psy=1 / psy_rd=1.00:0.00 / mixed_ref=1 / me_range=16 / chroma_me=1 / trellis=1 / 8x8dct=1 / cqm=0 / deadzone=21,11 / fast_pskip=1 / chroma_qp_offset=-2 / threads=12 / sliced_threads=0 / nr=0 / decimate=1 / interlaced=0 / bluray_compat=0 / constrained_intra=0 / bframes=3 / b_pyramid=2 / b_adapt=2 / b_bias=0 / direct=3 / weightb=1 / open_gop=0 / weightp=2 / keyint=240 / keyint_min=24 / scenecut=40 / intra_refresh=0 / rc_lookahead=50 / rc=2pass / mbtree=1 / bitrate=6020 / ratetol=1.0 / qcomp=0.60 / qpmin=0 / qpmax=69 / qpstep=4 / cplxblur=20.0 / qblur=0.5 / ip_ratio=1.40 / aq=1:1.00
Language : English
Default : Yes
Forced : No
Audio #1
ID : 2
Format : DTS
Format/Info : Digital Theater Systems
Mode : 16
Format settings, Endianness : Big
Codec ID : A_DTS
Duration : 1h 43mn
Bit rate mode : Constant
Bit rate : 1 509 Kbps
Channel(s) : 6 channels
Channel positions : Front: L C R, Side: L R, LFE
Sampling rate : 48.0 KHz
Bit depth : 24 bits
Compression mode : Lossy
Stream size : 1.10 GiB (19%)
Language : English
Default : Yes
Forced : Yes
Audio #2
ID : 4
Format : AC-3
Format/Info : Audio Coding 3
Mode extension : CM (complete main)
Format settings, Endianness : Big
Codec ID : A_AC3
Duration : 1h 43mn
Bit rate mode : Constant
Bit rate : 448 Kbps
Channel(s) : 6 channels
Channel positions : Front: L C R, Side: L R, LFE
Sampling rate : 48.0 KHz
Bit depth : 16 bits
Compression mode : Lossy
Stream size : 333 MiB (6%)
Language : Russian
Default : No
Forced : No
Text #1
ID : 3
Format : UTF-8
Codec ID : S_TEXT/UTF8
Codec ID/Info : UTF-8 Plain Text
Language : English
Default : No
Forced : No
Text #2
ID : 5
Format : UTF-8
Codec ID : S_TEXT/UTF8
Codec ID/Info : UTF-8 Plain Text
Title : Subs by Psychotechnic
Language : Russian
Default : Yes
Forced : Yes
Menu
00:00:00.000 : en:00:00:00.000
00:00:56.723 : en:00:00:56.723
00:03:33.797 : en:00:03:33.797
00:07:24.736 : en:00:07:24.736
00:09:44.292 : en:00:09:44.292
00:14:42.006 : en:00:14:42.006
00:20:38.863 : en:00:20:38.863
00:23:06.552 : en:00:23:06.552
00:25:54.178 : en:00:25:54.178
00:29:33.522 : en:00:29:33.522
00:32:56.349 : en:00:32:56.349
00:34:34.322 : en:00:34:34.322
00:39:26.739 : en:00:39:26.739
00:41:04.462 : en:00:41:04.462
00:42:02.729 : en:00:42:02.729
00:45:30.227 : en:00:45:30.227
00:52:00.576 : en:00:52:00.576
00:55:05.719 : en:00:55:05.719
01:02:18.526 : en:01:02:18.526
01:05:10.031 : en:01:05:10.031
01:06:26.024 : en:01:06:26.024
01:10:09.288 : en:01:10:09.288
01:16:49.188 : en:01:16:49.188
01:17:40.865 : en:01:17:40.865
01:24:55.757 : en:01:24:55.757
01:28:33.892 : en:01:28:33.892
01:31:01.289 : en:01:31:01.289
01:32:35.008 : en:01:32:35.008
01:36:29.909 : en:01:36:29.909
01:39:38.389 : en:01:39:38.389
01:41:31.377 : en:01:41:31.377
01:42:01.532 : en:01:42:01.532

Скриншоты



Показать сообщения:    

Текущее время: 19-Окт 22:46

Часовой пояс: UTC - 1


Вы не можете начинать темы
Вы не можете отвечать на сообщения
Вы не можете редактировать свои сообщения
Вы не можете удалять свои сообщения
Вы не можете голосовать в опросах
Вы не можете прикреплять файлы к сообщениям
Вы не можете скачивать файлы

!ВНИМАНИЕ!
Сайт не предоставляет электронные версии произведений, а занимается лишь коллекционированием и каталогизацией ссылок, присылаемых и публикуемых на форуме нашими читателями. Если вы являетесь правообладателем какого-либо представленного материала и не желаете, чтобы ссылка на него находилась в нашем каталоге, свяжитесь с нами, и мы незамедлительно удалим ее. Файлы для обмена на трекере предоставлены пользователями сайта, и администрация не несет ответственности за их содержание. Просьба не заливать файлы, защищенные авторскими правами, а также файлы нелегального содержания!