Важное объявление!
У Нас Все раздачи мультитрекерные, при нуле пиров в релизах, можете смело вставать на закачку!
 
Автор Сообщение

HUNTER

Стаж:
4 года 7 месяцев
Сообщений:
61564

Репутация: 101

[+] [-]
Вне форума [Профиль] [ЛС]

Франкенштейн / Frankenstein

Слоган: «A classic tale of undying love»
Страна: Словакия, США, Германия
Студия: Hallmark Entertainment, RTL2
Жанр: ужасы, фантастика, триллер, драма
Год выпуска: 2004
Продолжительность: 01:28:15 + 01:28:16
Перевод: Профессиональный (многоголосый закадровый) - [url=viewtopic.php?t=682447](DVD9 R5)[/url]
Cубтитры: русские[url=viewtopic.php?t=682447](DVD9 R5)[/url]
Оригинальная аудиодорожка: английский[url=viewtopic.php?t=682447](DVD9 R5)[/url]
Режиссер: Кевин Коннор / Kevin Connor
В ролях: Уильям Хёрт, Люк Госс, Алек Ньюман, Жюли Дельпи, Николь Льюис, Моника Хилмерова, Дональд Сазерленд, Томас Масталир, Иэн МакНис, Роджер Ла Пейдж ...
Описание: Одержимый идеей попрать законы жизни и смерти, молодой ученый Франкенштейн готов на все ради познания неизведанного. В своей лаборатории он сшивает из частей тел покойников, выкраденных из морга, гигантского монстра и оживляет его мощным электрическим разрядом.
Но происходит неожиданное: напуганное еще больше, чем его создатель, чудовище исчезает во мраке ночи. Превзойдя самые смелые ожидания Франкенштейна, оно способно мыслить и переживать.
Отвергнутое своим «отцом» и гонимое людьми, чудовище клянется отомстить Франкенштейну, лишив его самого дорогого. Ученому предстоит встреча с судьбой, олицетворяемой его же собственным творением. Оставляя за собой все новые жертвы, чудовище подбирается к цели…
Доп. информация: Исходник Frankenstein.2004.Miniseries.720p.WEB-DL.AAC.h264-jAh найден в сети.-- --Frankenstein (2004)_720p WEB-DL_Part - 1_ Sample_.mkv--Тип релиза: WEB-DL 720p
Контейнер: MKV
Видео: x264, 1280x718, 16:9, 23.976 fps, 4 139 kbit/s, Progressive, 0.188 Bits/(Pixel*Frame)
Аудио 1: 48 kHz, AC3 Dolby Digital, 3/2 (L,C,R,l,r) + LFE ch, ~448 kbps, Русский
Аудио 2: 48 kHz, AC3 Dolby Digital, 3/2 (L,C,R,l,r) + LFE ch, ~448 kbps, Английский
Формат субтитров: softsub (SRT)

MediaInfo

General
Unique ID : 227514707804999160627854995184007584358 (0xAB29BD259A324FEC9B51F90FC85D1A66)
Complete name : I:\111\z_D_Disk\Frankenstein (2004)_720p WEB-DL_\Frankenstein (2004)_720p WEB-DL_Part - 1_ .mkv
Format : Matroska
Format version : Version 4 / Version 2
File size : 3.17 GiB
Duration : 1h 28mn
Overall bit rate : 5 137 Kbps
Encoded date : UTC 2016-02-27 22:00:30
Writing application : mkvmerge v8.6.1 ('Flying') 64bit
Writing library : libebml v1.3.3 + libmatroska v1.4.4
Video
ID : 1
Format : AVC
Format/Info : Advanced Video Codec
Format profile : High@L3.1
Format settings, CABAC : No
Format settings, ReFrames : 2 frames
Codec ID : V_MPEG4/ISO/AVC
Duration : 1h 28mn
Bit rate : 4 139 Kbps
Width : 1 280 pixels
Height : 718 pixels
Display aspect ratio : 16:9
Frame rate mode : Constant
Frame rate : 23.976 fps
Color space : YUV
Chroma subsampling : 4:2:0
Bit depth : 8 bits
Scan type : Progressive
Bits/(Pixel*Frame) : 0.188
Stream size : 2.55 GiB (81%)
Title : Frankenstein (2004)_720p WEB-DL_Part - 1_[rjhlb777]
Language : English
Default : Yes
Forced : No
Color range : Limited
Color primaries : BT.709
Transfer characteristics : BT.709
Matrix coefficients : BT.709
Audio #1
ID : 2
Format : AC-3
Format/Info : Audio Coding 3
Mode extension : CM (complete main)
Format settings, Endianness : Big
Codec ID : A_AC3
Duration : 1h 28mn
Bit rate mode : Constant
Bit rate : 448 Kbps
Channel(s) : 6 channels
Channel positions : Front: L C R, Side: L R, LFE
Sampling rate : 48.0 KHz
Compression mode : Lossy
Stream size : 283 MiB (9%)
Title : MVO (DVD9 R5)
Language : Russian
Default : Yes
Forced : No
Audio #2
ID : 3
Format : AC-3
Format/Info : Audio Coding 3
Mode extension : CM (complete main)
Format settings, Endianness : Big
Codec ID : A_AC3
Duration : 1h 28mn
Bit rate mode : Constant
Bit rate : 448 Kbps
Channel(s) : 6 channels
Channel positions : Front: L C R, Side: L R, LFE
Sampling rate : 48.0 KHz
Compression mode : Lossy
Stream size : 283 MiB (9%)
Title : Original (DVD9 R5)
Language : English
Default : No
Forced : No
Text
ID : 4
Format : UTF-8
Codec ID : S_TEXT/UTF8
Codec ID/Info : UTF-8 Plain Text
Title : RUS (DVD9 R5)
Language : Russian
Default : No
Forced : No
Menu
00:00:00.000 : en:Chapter 01
00:19:45.351 : en:Chapter 02
00:45:34.148 : en:Chapter 03
01:18:29.121 : en:Chapter 04
==================================================
==================================================
General
Unique ID : 254946395310388733713328016289944717891 (0xBFCCE3C2FF89B1E6AFBFFA2D44564A43)
Complete name : I:\111\z_D_Disk\Frankenstein (2004)_720p WEB-DL_\Frankenstein (2004)_720p WEB-DL_Part - 2_ .mkv
Format : Matroska
Format version : Version 4 / Version 2
File size : 3.06 GiB
Duration : 1h 28mn
Overall bit rate : 4 961 Kbps
Encoded date : UTC 2016-02-27 22:17:02
Writing application : mkvmerge v8.6.1 ('Flying') 64bit
Writing library : libebml v1.3.3 + libmatroska v1.4.4
Video
ID : 1
Format : AVC
Format/Info : Advanced Video Codec
Format profile : High@L3.1
Format settings, CABAC : No
Format settings, ReFrames : 2 frames
Format settings, GOP : M=2, N=69
Codec ID : V_MPEG4/ISO/AVC
Duration : 1h 28mn
Bit rate : 3 966 Kbps
Width : 1 280 pixels
Height : 718 pixels
Display aspect ratio : 16:9
Frame rate mode : Constant
Frame rate : 23.976 fps
Color space : YUV
Chroma subsampling : 4:2:0
Bit depth : 8 bits
Scan type : Progressive
Bits/(Pixel*Frame) : 0.180
Stream size : 2.45 GiB (80%)
Title : Frankenstein (2004)_720p WEB-DL_Part - 2_[rjhlb777]
Language : English
Default : Yes
Forced : No
Color range : Limited
Color primaries : BT.709
Transfer characteristics : BT.709
Matrix coefficients : BT.709
Audio #1
ID : 2
Format : AC-3
Format/Info : Audio Coding 3
Mode extension : CM (complete main)
Format settings, Endianness : Big
Codec ID : A_AC3
Duration : 1h 28mn
Bit rate mode : Constant
Bit rate : 448 Kbps
Channel(s) : 6 channels
Channel positions : Front: L C R, Side: L R, LFE
Sampling rate : 48.0 KHz
Compression mode : Lossy
Stream size : 283 MiB (9%)
Title : MVO (DVD9 R5)
Language : Russian
Default : Yes
Forced : No
Audio #2
ID : 3
Format : AC-3
Format/Info : Audio Coding 3
Mode extension : CM (complete main)
Format settings, Endianness : Big
Codec ID : A_AC3
Duration : 1h 28mn
Bit rate mode : Constant
Bit rate : 448 Kbps
Channel(s) : 6 channels
Channel positions : Front: L C R, Side: L R, LFE
Sampling rate : 48.0 KHz
Compression mode : Lossy
Stream size : 283 MiB (9%)
Title : Original (DVD9 R5)
Language : English
Default : No
Forced : No
Text
ID : 4
Format : UTF-8
Codec ID : S_TEXT/UTF8
Codec ID/Info : UTF-8 Plain Text
Title : RUS (DVD9 R5)
Language : Russian
Default : No
Forced : No
Menu
00:00:00.000 : en:Chapter 01
00:22:27.596 : en:Chapter 02
00:39:08.972 : en:Chapter 03
01:12:00.942 : en:Chapter 04

_________________
Показать сообщения:    

Текущее время: Сегодня 21:38

Часовой пояс: GMT



Вы не можете начинать темы
Вы не можете отвечать на сообщения
Вы не можете редактировать свои сообщения
Вы не можете удалять свои сообщения
Вы не можете голосовать в опросах
Вы не можете прикреплять файлы к сообщениям
Вы не можете скачивать файлы
Наши партнеры: интернет магазин Ивановского трикотажа textilla.ru