Важное объявление!
У Нас Все раздачи мультитрекерные, при нуле пиров в релизах, можете смело вставать на закачку!
Статистика раздачи
Размер:     |    Зарегистрирован:     |    Скачан:     |   
Нет
 
     
 
 
Автор Сообщение

HUNTER

Стаж:
5 лет 1 месяц
Сообщений:
68426

Репутация: 101

[+] [-]
Вне форума [Профиль] [ЛС]

Франкенштейн должен быть уничтожен / Frankenstein Must Be Destroyed
-Страна: США
Жанр: ужасы, фантастика, драма
Год выпуска: 1953
Продолжительность: 01:40:43-Перевод: Профессиональный (многоголосый закадровый)-Cубтитры: английские
Оригинальная аудиодорожка: английский-Режиссер: Теренс Фишер / Terence Fisher-В ролях: Питер Кашинг,Вероника Карлсон,Фредди Джонс,Саймон Вард,Торли Уолтерс-Описание:
Франкенштейн похищает из психиатрической лечебницы своего коллегу доктора Фредерика Брандта. Он уверен, что сможет излечить Брандта от сумасшествия с помощью хирургического вмешательства. Но операция проходит неудачно. Тогда Франкенштейн похищает другого человека — профессора Рихтера, чтобы пересадить в его тело мозг Брандта. И это ему удается, но оказывается, что получившееся существо вовсе не собирается сотрудничать со своим создателем...--Сэмпл: Скачать-Тип релиза: BDRemux 1080p
Контейнер: MKV-Видео: MPEG-4 AVC Video; 31933 kbps; 1080p; 23.976 fps; 16:9; High Profile 4.1
Аудио 1: Russian; AC3; 48.0 KHz; 2ch; 192 Kbps
Аудио 2: English; FLAC; 48.0 KHz; 1ch; 683 Kbps

MediaInfo

Format : Matroska
Format version : Version 4 / Version 2
File size : 23.1 GiB
Duration : 1h 40mn
Overall bit rate mode : Variable
Overall bit rate : 32.8 Mbps
Encoded date : UTC 2016-07-24 08:18:17
Writing application : mkvmerge v8.3.0 ('Over the Horizon') 64bit
Writing library : libebml v1.3.1 + libmatroska v1.4.2
Attachments : poster.jpg
Video
ID : 1
Format : AVC
Format/Info : Advanced Video Codec
Format profile : High@L4.1
Format settings, CABAC : Yes
Format settings, ReFrames : 2 frames
Codec ID : V_MPEG4/ISO/AVC
Duration : 1h 40mn
Bit rate mode : Variable
Bit rate : 31.9 Mbps
Width : 1 920 pixels
Height : 1 080 pixels
Display aspect ratio : 16:9
Frame rate mode : Constant
Frame rate : 23.976 (24000/1001) fps
Color space : YUV
Chroma subsampling : 4:2:0
Bit depth : 8 bits
Scan type : Progressive
Bits/(Pixel*Frame) : 0.642
Stream size : 22.5 GiB (97%)
Default : Yes
Forced : No
Audio #1
ID : 2
Format : AC-3
Format/Info : Audio Coding 3
Mode extension : CM (complete main)
Format settings, Endianness : Big
Codec ID : A_AC3
Duration : 1h 40mn
Bit rate mode : Constant
Bit rate : 192 Kbps
Channel(s) : 1 channel
Channel positions : Front: C
Sampling rate : 48.0 KHz
Frame rate : 31.250 fps (1536 spf)
Compression mode : Lossy
Stream size : 138 MiB (1%)
Title : MVO
Language : Russian
Default : Yes
Forced : No
Audio #2
ID : 3
Format : FLAC
Format/Info : Free Lossless Audio Codec
Codec ID : A_FLAC
Duration : 1h 40mn
Bit rate mode : Variable
Bit rate : 683 Kbps
Channel(s) : 1 channel
Channel positions : Front: C
Sampling rate : 48.0 KHz
Frame rate : 11.719 fps (4096 spf)
Bit depth : 24 bits
Stream size : 492 MiB (2%)
Writing library : libFLAC 1.2.1 (UTC 2007-09-17)
Language : English
Default : No
Forced : No
Text
ID : 4
Format : UTF-8
Codec ID : S_TEXT/UTF8
Codec ID/Info : UTF-8 Plain Text
Duration : 1h 32mn
Bit rate : 45 bps
Count of elements : 817
Stream size : 30.8 KiB (0%)
Language : English
Default : No
Forced : No

Скриншоты


_________________
Показать сообщения:    

Текущее время: Сегодня 16:37

Часовой пояс: GMT



Вы не можете начинать темы
Вы не можете отвечать на сообщения
Вы не можете редактировать свои сообщения
Вы не можете удалять свои сообщения
Вы не можете голосовать в опросах
Вы не можете прикреплять файлы к сообщениям
Вы не можете скачивать файлы