Ивановский Торрент трекер
Яндекс.Погода
 

[Цитировать]
HUNTER

Франкенвини / Frankenweenie
Год выпуска: 2012
Страна: США
Жанр: Мультфильм
Продолжительность: 1:26:57
Перевод: Авторский (одноголосый закадровый), Антон Карповский + Андрей Гаврилов
Cубтитры: нет
Режиссер: Тим Бёртон / Tim Burton
В ролях: Чарли Тахэн /Charlie Tahan/, Кэтрин О’Хара /Catherine O'Hara/, Мартин Шорт /Martin Short/, Мартин Ландау /Martin Landau/, Аттикус Шаффер /Atticus Shaffer/, Вайнона Райдер /Winona Ryder/
Описание: Обожаемый мальчиком Виктором пес Спарки погибает в результате несчастного случая. Мальчик, не желая мириться с потерей друга, призывает науку на помощь и…возвращает питомца к жизни! Казалось бы, все не так уж плохо, но когда Спарки сбегает от Виктора, его друзья, родители, учителя и жители городка узнают, что возвращение к жизни домашнего питомца может повлечь за собой неожиданные и даже ужасные последствия!
Исходник видео:
Качество видео: HDRip
Формат видео: AVI
Видео кодек: XviD
Аудио кодек: AC3
Видео: 720x384, 23,976 fps, 1632 kbps
Аудио: 48000Hz, DD 5.1, 384 kbps (Карповский)
Аудио: 48000Hz, DD 5.1, 384 kbps (Гаврилов)
Скачать: SAMPLE 31.60MB
Доп. информация: За перевод, данного фильма у Антона Карповского, выражается благодарность пользователям форума hdtracker: shtift, feldeger (+1), Guyver, ZeRoNe, WhiteHorse, Dans, shitman82, dunhill200, lexal, Chistobaev, A.C.A.B., IgorNN. Отдельное спасибо dunhill200'у и Ко!
За перевод, данного фильма у Андрея Гаврилова, выражается благодарность пользователям форума hdtracker: KpucTo161, WhiteHorse, AVO-Detector, shitman82, dunhill200, lexal, Chistobaev, therox, IgorNN, Dans, ZeRoN, Pain_70, Guyver, Volfgang77, carter64, Vimann, feldeger (+1), Xerman13, moon_sea, chernila, _MyxAmoP_, zork, audiolubitel, -Джосс-, karantin66, Klester. Отдельное спасибо dunhill200'у и Ко!
P.S.: Всех кто располагает переводами Антона Карповского попрошу в эту тему.
MediaInfo
Формат : AVI
Формат/Информация : Audio Video Interleave
Размер файла : 1,47 Гбайт
Продолжительность : 1 ч. 26 м.
Общий поток : 2415 Кбит/сек
Программа кодирования : VirtualDubMod 1.5.4.1 (build 2178/release)
Библиотека кодирования : VirtualDubMod build 2178/release
Видео
Идентификатор : 0
Формат : MPEG-4 Visual
Профиль формата : Advanced Simple@L5
Параметр BVOP формата : 1
Параметр QPel формата : Нет
Параметр GMC формата : Без точки перехода
Параметр матрицы формата : Default (MPEG)
Идентификатор кодека : XVID
Идентификатор кодека/Подсказка : XviD
Продолжительность : 1 ч. 26 м.
Битрейт : 1633 Кбит/сек
Ширина : 720 пикселей
Высота : 384 пикселя
Соотношение сторон : 1,85:1
Частота кадров : 23,976 кадра/сек
Цветовое пространство : YUV
Субдискретизация насыщенности : 4:2:0
Битовая глубина : 8 бит
Тип развёртки : Прогрессивная
Метод сжатия : С потерями
Бит/(Пиксели*Кадры) : 0.246
Размер потока : 1016 Мбайт (68%)
Библиотека кодирования : XviD 1.2.1 (UTC 2008-12-04)
Аудио #1
Идентификатор : 1
Формат : AC-3
Формат/Информация : Audio Coding 3
Расширение режима : CM (complete main)
Параметр Endianness формата : Big
Идентификатор кодека : 2000
Продолжительность : 1 ч. 26 м.
Вид битрейта : Постоянный
Битрейт : 384 Кбит/сек
Каналы : 6 каналов
Расположение каналов : Front: L C R, Side: L R, LFE
Частота : 48,0 КГц
Битовая глубина : 16 бит
Метод сжатия : С потерями
Размер потока : 239 Мбайт (16%)
Выравнивание : Разделение по промежуткам
Продолжительность промежутка : 42 мс. (1,00 видеокадр)
Время предзагрузки промежутка : 500 мс.
Аудио #2
Идентификатор : 2
Формат : AC-3
Формат/Информация : Audio Coding 3
Расширение режима : CM (complete main)
Параметр Endianness формата : Big
Идентификатор кодека : 2000
Продолжительность : 1 ч. 26 м.
Вид битрейта : Постоянный
Битрейт : 384 Кбит/сек
Каналы : 6 каналов
Расположение каналов : Front: L C R, Side: L R, LFE
Частота : 48,0 КГц
Битовая глубина : 16 бит
Метод сжатия : С потерями
Размер потока : 239 Мбайт (16%)
Выравнивание : Разделение по промежуткам
Продолжительность промежутка : 42 мс. (1,00 видеокадр)
Время предзагрузки промежутка : 500 мс.
Скриншоты
Показать сообщения:    

Текущее время: 17-Окт 10:18

Часовой пояс: UTC - 1


Вы не можете начинать темы
Вы не можете отвечать на сообщения
Вы не можете редактировать свои сообщения
Вы не можете удалять свои сообщения
Вы не можете голосовать в опросах
Вы не можете прикреплять файлы к сообщениям
Вы не можете скачивать файлы

!ВНИМАНИЕ!
Сайт не предоставляет электронные версии произведений, а занимается лишь коллекционированием и каталогизацией ссылок, присылаемых и публикуемых на форуме нашими читателями. Если вы являетесь правообладателем какого-либо представленного материала и не желаете, чтобы ссылка на него находилась в нашем каталоге, свяжитесь с нами, и мы незамедлительно удалим ее. Файлы для обмена на трекере предоставлены пользователями сайта, и администрация не несет ответственности за их содержание. Просьба не заливать файлы, защищенные авторскими правами, а также файлы нелегального содержания!