Важное объявление!
У Нас Все раздачи мультитрекерные, при нуле пиров в релизах, можете смело вставать на закачку!
 
Автор Сообщение

HUNTER

Стаж:
4 года 8 месяцев
Сообщений:
62091

Репутация: 101

[+] [-]
Вне форума [Профиль] [ЛС]

Фотографии Луны с Рейнджера-7 / Ranger VII Photographs of the Moon
Дата/Год выпуска: 1964
Страна: США
Жанр: Документальный, космос
Продолжительность: 00:07:06
Перевод: Субтитры - перевод Anna Spacedust
Русские субтитры: есть
Формат субтитров: softsub (SRT)
Оригинальная аудиодорожка: английский
Описание: Фильм НАСА про работу аппарата Рейнджер-7.
качество: DVDRip
формат: AVI
Видео: Xvid 720x536 24fps 719kbps
Аудио: AC3 48000Hz stereo 160kbps

MediaInfo

GeneralComplete name : C:\Ranger VII\Ranger VII Photographs of the Moon.aviFormat : AVIFormat/Info : Audio Video InterleaveFile size : 45.2 MiBDuration : 7mn 6sOverall bit rate : 889 KbpsWriting application : VirtualDubMod 1.5.10.3 | www.virtualdub-fr.org || (build 2550/release)Writing library : VirtualDubMod build 2550/release
VideoID : 0Format : MPEG-4 VisualFormat profile : Advanced Simple@L5Format settings, BVOP : 1Format settings, QPel : NoFormat settings, GMC : No warppointsFormat settings, Matrix : Default (H.263)Codec ID : XVIDCodec ID/Hint : XviDDuration : 7mn 6sBit rate : 720 KbpsWidth : 720 pixelsHeight : 536 pixelsDisplay aspect ratio : 4:3Frame rate : 24.000 fpsColor space : YUVChroma subsampling : 4:2:0Bit depth : 8 bitsScan type : ProgressiveCompression mode : LossyBits/(Pixel*Frame) : 0.078Stream size : 36.6 MiB (81%)Writing library : XviD 1.2.1 (UTC 2008-12-04)
AudioID : 1Format : AC-3Format/Info : Audio Coding 3Mode extension : CM (complete main)Format settings, Endianness : BigCodec ID : 2000Duration : 7mn 6sBit rate mode : ConstantBit rate : 160 KbpsChannel(s) : 2 channelsChannel positions : Front: L RSampling rate : 48.0 KHzCompression mode : LossyStream size : 8.13 MiB (18%)Alignment : Split accross interleavesInterleave, duration : 42 ms (1.00 video frame)Interleave, preload duratio : 500 ms

Скриншоты



_________________
Показать сообщения:    

Текущее время: Сегодня 16:24

Часовой пояс: GMT



Вы не можете начинать темы
Вы не можете отвечать на сообщения
Вы не можете редактировать свои сообщения
Вы не можете удалять свои сообщения
Вы не можете голосовать в опросах
Вы не можете прикреплять файлы к сообщениям
Вы не можете скачивать файлы
Наши партнеры: интернет магазин Ивановского трикотажа textilla.ru