Ивановский Торрент трекер
Яндекс.Погода
 

[Цитировать]
mihis

Форсаж 6 / Fast & Furious 6«Все дороги принадлежат им» Год выпуска: 2013
Страна: США, Original Film
Жанр: Боевик, драма, криминал, триллер
Продолжительность: 02:10:05
Перевод: Профессиональный (полное дублирование) iTunes Russia
Режиссер: Джастин Лин
В ролях: Вин Дизель, Дуэйн Джонсон, Пол Уокер, Мишель Родригес, Люк Эванс, Джина Карано, Эльза Патаки, Джордана Брюстер, Санг Кенг, Галь Гадот, Тайриз Гибсон, Лудакрис, Джо Таслим, Алистер МакНаб, Дэнис Хорошко, Марк Бэдхэм, Бао Тию, Леон Корбин, Виктор Гарднер, Эндрю Клара Пэджет, Пойнтон, Сьёнг Лун Чун, Джеймс Хэа, Глен Стэнуэй, Льюис Джеймс, Джоаккино Джим Куффаро, Алекс Мартин, Дэвид Аджала, Стивен Маркус
Описание: После того, как Дом и Брайн были в Рио и ограбили, и свергли империю вора в законе, и их команда получила 100 миллионов, наши герои оказались разбросаны по всему миру. Но их не способность вернуться домой и вечно жить в бегах, сделала их жизнь неполной. Между тем, Хоббс отслеживал организацию смертельно опасных наемников-водителей по двенадцати странам, чьим вдохновителем и вторым-в-команде стала любовь Дома, которую считали мертвой, Летти. Единственный способ остановить криминальный наряд, это превосходить их на улицах, поэтому Хоббс спрашивает Дома, сможет ли собраться его элитная команда в Лондоне. Оплата? Полное помилование для всех, чтобы они смогли вернуться домой к своей семье.

Качество: WEB-DLRip
Формат: AVI
Видео кодек: XviD
Аудио кодек: AC3
Видео: 720x304 (2.37:1), 23.976 fps, XviD build 50 ~1865 kbps avg, 0.35 bit/pixel
Аудио: 48 kHz, AC3 Dolby Digital, 3/2 (L,C,R,l,r) + LFE ch, ~384 kbps

MediaInfo

Общее
Полное имя : D:\Video\F.0.r.s.a.g.h.6.2013.D.WEBDLRip.2100Mb.avi
Формат : AVI
Формат/Информация : Audio Video Interleave
Профиль формата : OpenDML
Размер файла : 2,05 Гбайт
Продолжительность : 2 ч. 10 м.
Общий поток : 2257 Кбит/сек
Программа кодирования : VirtualDubMod 1.5.10.3 | www.virtualdub-fr.org || (build 2550/release)
Библиотека кодирования : VirtualDubMod build 2550/release
Видео
Идентификатор : 0
Формат : MPEG-4 Visual
Профиль формата : Advanced Simple@L5
Параметр BVOP формата : 2
Параметр QPel формата : Нет
Параметр GMC формата : Без точки перехода
Параметр матрицы формата : Выборочная
Идентификатор кодека : XVID
Идентификатор кодека/Подсказка : XviD
Продолжительность : 2 ч. 10 м.
Битрейт : 1861 Кбит/сек
Ширина : 720 пикселей
Высота : 304 пикселя
Соотношение сторон : 2,35:1
Частота кадров : 23,976 кадра/сек
Цветовое пространство : YUV
Субдискретизация насыщенности : 4:2:0
Битовая глубина : 8 бит
Тип развёртки : Прогрессивная
Метод сжатия : С потерями
Бит/(Пиксели*Кадры) : 0.355
Размер потока : 1,69 Гбайт (82%)
Библиотека кодирования : XviD 1.2.1 (UTC 2008-12-04)
Аудио
Идентификатор : 1
Формат : AC-3
Формат/Информация : Audio Coding 3
Расширение режима : CM (complete main)
Параметр Endianness формата : Big
Идентификатор кодека : 2000
Продолжительность : 2 ч. 10 м.
Вид битрейта : Постоянный
Битрейт : 384 Кбит/сек
Каналы : 6 каналов
Расположение каналов : Front: L C R, Side: L R, LFE
Частота : 48,0 КГц
Битовая глубина : 16 бит
Метод сжатия : С потерями
Размер потока : 357 Мбайт (17%)
Выравнивание : Разделение по промежуткам
Продолжительность промежутка : 42 мс. (1,00 видеокадр)
Время предзагрузки промежутка : 500 мс.

[Цитировать]
dimmmolk37

фильм класс


Показать сообщения:    

Текущее время: 13-Дек 13:22

Часовой пояс: UTC ± 0


Вы не можете начинать темы
Вы не можете отвечать на сообщения
Вы не можете редактировать свои сообщения
Вы не можете удалять свои сообщения
Вы не можете голосовать в опросах
Вы не можете прикреплять файлы к сообщениям
Вы не можете скачивать файлы

!ВНИМАНИЕ!
Сайт не предоставляет электронные версии произведений, а занимается лишь коллекционированием и каталогизацией ссылок, присылаемых и публикуемых на форуме нашими читателями. Если вы являетесь правообладателем какого-либо представленного материала и не желаете, чтобы ссылка на него находилась в нашем каталоге, свяжитесь с нами, и мы незамедлительно удалим ее. Файлы для обмена на трекере предоставлены пользователями сайта, и администрация не несет ответственности за их содержание. Просьба не заливать файлы, защищенные авторскими правами, а также файлы нелегального содержания!