Важное объявление!
У Нас Все раздачи мультитрекерные, при нуле пиров в релизах, можете смело вставать на закачку!
Статистика раздачи
Размер:     |    Зарегистрирован:     |    Скачан:     |   
Нет
 
     
 
 
Автор Сообщение

Shalun

Стаж:
5 лет 1 месяц
Сообщений:
802

Репутация: 123

[+] [-]
Вне форума [Профиль] [ЛС]

Форрест ГампForrest Gump«Мир уже никогда не будет прежним, после того как вы увидите его глазами Форреста Гампа»
Год выпуска: 1994
Страна: США
Жанр: драма, мелодрама
Продолжительность: 02:22:09
Перевод: Профессиональный (многоголосый закадровый)
Субтитры: Russian (2 v), English (srt)
Режиссер: Роберт Земекис

В ролях: Том Хэнкс / Tom Hanks (Forrest Gump, $ 70 000 000 (% от сборов)), Робин Райт / Robin Wright (Jenny Curran), Гэри Синиз / Gary Sinise (Lieutenant Dan Taylor), Майкелти Уильямсон / Mykelti Williamson (Bubba Blue), Салли Филд / Sally Field (Mrs. Gump), Ребекка Уильямс / Rebecca Williams (Nurse at Park Bench), Майкл Коннер Хэмпфри / Michael Conner Humphreys (Young Forrest), Хэйли Джоэл Осмент / Haley Joel Osment (Forrest Junior), Харольд Дж. Хертэм / Harold G. Herthum (в титрах: Harold Herthum) (Doctor), Джордж Келли / George Kelly (Barber)
Описание: От лица главного героя Форреста Гампа, слабоумного безобидного человека с благородным и открытым сердцем, рассказывается история его необыкновенной жизни.Фантастическим образом превращается он в известного футболиста, героя войны, преуспевающего бизнесмена. Он становится миллиардером, но остается таким же бесхитростным, глупым и добрым. Форреста ждет постоянный успех во всем, а он любит девочку, с которой дружил в детстве, но взаимность приходит слишком поздно.

Рейтинг MPAA: Детям до 13 лет просмотр не желателен
Рейтинг ВКИП: для детей старше 12 лет

Качество: BDRip
Формат: MKV
Видео кодек: H.264 (AVC)
Аудио кодеk: AC3
Видео: 1920x816 (2.35:1), 23.976 fps, AVC, 12.6 Mbps
Аудио:
Аудио #1: AC3, 448 Kbps, 48.0 KHz, 6 ch RUS MVO - FDV / Киномания
Аудио #2: AC3, 448 Kbps, 48.0 KHz, 6 ch RUS MVO - Позитив-мультимедиа
Аудио #3: AC3, 448 Kbps, 48.0 KHz, 6 ch RUS MVO - Tycoon
Аудио #4: AC3, 448 Kbps, 48.0 KHz, 6 ch RUS AVO - Юрий Сербин
Аудио #5: AC3, 448 Kbps, 48.0 KHz, 6 ch RUS AVO - Андрей Гаврилов
Аудио #6: AC3, 448 Kbps, 48.0 KHz, 6 ch ENG

МедиаИнфо


x264 [info]: frame I:1188 Avg QP:17.10 size:216262
x264 [info]: frame P:48227 Avg QP:19.18 size: 99602
x264 [info]: frame B:155086 Avg QP:21.49 size: 53967
**********************************************************
General
Unique ID : 240413482399648016064942116577224825177 (0xB4DDF3D5A6636239AA4724EC757E1959)
Complete name : Forrest Gump (1994) BDRip 1080p.F-HD.mkv
Format : Matroska
Format version : Version 4 / Version 2
File size : 15.2 GiB
Duration : 2h 22mn
Overall bit rate : 15.3 Mbps
Encoded date : UTC 2013-06-05 05:40:21
Writing application : mkvmerge v6.2.0 ('Promised Land') built on Apr 28 2013 12:22:01
Writing library : libebml v1.3.0 + libmatroska v1.4.0
Video
ID : 1
Format : AVC
Format/Info : Advanced Video Codec
Format profile : High@L4.1
Format settings, CABAC : Yes
Format settings, ReFrames : 5 frames
Codec ID : V_MPEG4/ISO/AVC
Duration : 2h 22mn
Bit rate : 12.6 Mbps
Width : 1 920 pixels
Height : 816 pixels
Display aspect ratio : 2.35:1
Frame rate mode : Constant
Frame rate : 23.976 fps
Color space : YUV
Chroma subsampling : 4:2:0
Bit depth : 8 bits
Scan type : Progressive
Bits/(Pixel*Frame) : 0.335
Stream size : 12.2 GiB (80%)
Writing library : x264 core 133 r2334kMod a3ac64b
Encoding settings : cabac=1 / ref=5 / deblock=1:-3:-3 / analyse=0x3:0x113 / me=umh / subme=11 / psy=1 / fade_compensate=0.00 / psy_rd=1.05:0.05 / mixed_ref=1 / me_range=48 / chroma_me=1 / trellis=2 / 8x8dct=1 / cqm=0 / deadzone=21,11 / fast_pskip=0 / chroma_qp_offset=-3 / threads=6 / lookahead_threads=1 / sliced_threads=0 / nr=0 / decimate=1 / interlaced=0 / bluray_compat=0 / constrained_intra=0 / bframes=9 / b_pyramid=2 / b_adapt=2 / b_bias=0 / direct=3 / weightb=1 / open_gop=0 / weightp=2 / keyint=250 / keyint_min=23 / scenecut=40 / intra_refresh=0 / rc=2pass / mbtree=0 / bitrate=12600 / ratetol=1.0 / qcomp=0.75 / qpmin=0 / qpmax=69 / qpstep=4 / cplxblur=20.0 / qblur=0.5 / ip_ratio=1.40 / pb_ratio=1.30 / aq=1:0.80
Language : English
Default : Yes
Forced : No
Matrix coefficients : BT.709
Audio #1
ID : 2
Format : AC-3
Format/Info : Audio Coding 3
Mode extension : CM (complete main)
Format settings, Endianness : Big
Codec ID : A_AC3
Duration : 2h 22mn
Bit rate mode : Constant
Bit rate : 448 Kbps
Channel(s) : 6 channels
Channel positions : Front: L C R, Side: L R, LFE
Sampling rate : 48.0 KHz
Bit depth : 16 bits
Compression mode : Lossy
Stream size : 456 MiB (3%)
Title : MVO . FDV . Киномания
Language : Russian
Default : Yes
Forced : No
Audio #2
ID : 3
Format : AC-3
Format/Info : Audio Coding 3
Mode extension : CM (complete main)
Format settings, Endianness : Big
Codec ID : A_AC3
Duration : 2h 22mn
Bit rate mode : Constant
Bit rate : 448 Kbps
Channel(s) : 6 channels
Channel positions : Front: L C R, Side: L R, LFE
Sampling rate : 48.0 KHz
Bit depth : 16 bits
Compression mode : Lossy
Stream size : 456 MiB (3%)
Title : MVO . Позитив-мультимедиа
Language : Russian
Default : No
Forced : No
Audio #3
ID : 4
Format : AC-3
Format/Info : Audio Coding 3
Mode extension : CM (complete main)
Format settings, Endianness : Big
Codec ID : A_AC3
Duration : 2h 22mn
Bit rate mode : Constant
Bit rate : 448 Kbps
Channel(s) : 6 channels
Channel positions : Front: L C R, Side: L R, LFE
Sampling rate : 48.0 KHz
Bit depth : 16 bits
Compression mode : Lossy
Stream size : 456 MiB (3%)
Title : MVO . Tycoon
Language : Russian
Default : No
Forced : No
Audio #4
ID : 5
Format : AC-3
Format/Info : Audio Coding 3
Mode extension : CM (complete main)
Format settings, Endianness : Big
Codec ID : A_AC3
Duration : 2h 22mn
Bit rate mode : Constant
Bit rate : 448 Kbps
Channel(s) : 6 channels
Channel positions : Front: L C R, Side: L R, LFE
Sampling rate : 48.0 KHz
Bit depth : 16 bits
Compression mode : Lossy
Stream size : 456 MiB (3%)
Title : AVO . Ю. Сербин
Language : Russian
Default : No
Forced : No
Audio #5
ID : 6
Format : AC-3
Format/Info : Audio Coding 3
Mode extension : CM (complete main)
Format settings, Endianness : Big
Codec ID : A_AC3
Duration : 2h 22mn
Bit rate mode : Constant
Bit rate : 448 Kbps
Channel(s) : 6 channels
Channel positions : Front: L C R, Side: L R, LFE
Sampling rate : 48.0 KHz
Bit depth : 16 bits
Compression mode : Lossy
Stream size : 456 MiB (3%)
Title : AVO . А. Гаврилов
Language : Russian
Default : No
Forced : No
Audio #6
ID : 7
Format : AC-3
Format/Info : Audio Coding 3
Mode extension : CM (complete main)
Format settings, Endianness : Big
Codec ID : A_AC3
Duration : 2h 22mn
Bit rate mode : Constant
Bit rate : 448 Kbps
Channel(s) : 6 channels
Channel positions : Front: L C R, Side: L R, LFE
Sampling rate : 48.0 KHz
Bit depth : 16 bits
Compression mode : Lossy
Stream size : 456 MiB (3%)
Language : English
Default : No
Forced : No
Text #1
ID : 8
Format : UTF-8
Codec ID : S_TEXT/UTF8
Codec ID/Info : UTF-8 Plain Text
Title : Позитив-мультимедиа
Language : Russian
Default : No
Forced : No
Text #2
ID : 9
Format : UTF-8
Codec ID : S_TEXT/UTF8
Codec ID/Info : UTF-8 Plain Text
Title : Tycoon
Language : Russian
Default : No
Forced : No
Text #3
ID : 10
Format : UTF-8
Codec ID : S_TEXT/UTF8
Codec ID/Info : UTF-8 Plain Text
Language : English
Default : No
Forced : No
Menu
00:00:00.000 : en:I'm Forest...Forest Gump
00:06:43.569 : en:Mama
00:12:24.577 : en:Like Peas And Carrots
00:19:56.944 : en:Run Forest Run!
00:31:13.705 : en:Private Gump
00:40:40.187 : en:Lieutenant Dan
00:44:18.113 : en:My Best Good Friend
00:56:34.474 : en:Wounded In The Buttocks
01:03:32.266 : en:You're My Girl
01:13:34.075 : en:National Celebrity
01:17:02.825 : en:Happy New Year
01:23:52.277 : en:Shrimp Boat Captain
01:34:59.943 : en:Bubba Gump
01:38:55.595 : en:Mama's Trip To Heaven
01:43:52.893 : en:Jenny Comes Home
01:51:28.306 : en:A Little Run
01:58:54.709 : en:Forrest Meets Forrest
02:04:48.564 : en:Beloved Mother, Wife And Friend
02:15:25.200 : en:Credits

Знаете ли Вы, что...

★ Фильм снят по мотивам романа Уинстона Грума «Форрест Гамп» (Forrest Gump, 1986).
★ Фильм достаточно далеко ушёл от исходного романа Уинстона Грума, в котором Форрест Гамп показан резким несносным циником. А цитата из фильма «Жизнь — это как коробка конфет» полностью противоположна мысли из романа «Быть идиотом — это не коробка конфет».
★ В ходе съемок одной из сцен Том Хэнкс говорит: «Мое имя — Форрест Гамп. Люди зовут меня Форрест Гамп». На самом деле актер совершил оговорку, но режиссеру Роберту Земекису она пришлась по вкусу, и он включил именно этот дубль в итоговую версию картины.
★ Режиссерское кресло могло достаться Барри Зонненфельду и Терри Гиллиаму.
★ Во время съемок футбольных сцен Том Хэнкс был болен гриппом, однако стойко выдержал испытания и отработал в эти дни через «не могу».
★ Том Хэнкс согласился принять участие в съемках с одним условием: все события картины должны перекликаться с реальными историческими событиями.
★ В эпизодических ролях были задействованы Александр Земекис (сын режиссера) и Элизабет Хэнкс (дочь актера).
★ Имя персонажа Forrest Gump созвучно словосочетанию «forest gamp» — что в переводе с английского означает «лесной зонтик». Сами слова, однако, переводятся как «лесной житель» и «придурок».
★ Кинокомпания Warner Bros. отказалась от прав на этот фильм в 1988 году, посчитав, что реализация этого проекта будет коммерчески невыгодна после выхода фильма «Человек дождя».
★ «Оторванные» ноги Гэри Синиза при съёмке были обёрнуты специальным синим полотном, что позволило их потом «стереть» из кадра посредством компьютерных спецэффектов. Тем не менее в некоторых эпизодах заметно как лейтенант Ден слегка опирается на отсутствующие конечности.
★ Оригинальный акцент Форреста Гампа Том Хэнкс подсмотрел у Майкла Коннера Хамфриса, игравшего молодого Гампа и действительно в жизни говорившего с таким акцентом.
★ Почти все реплики давно умершего Джона Леннона для этого фильма были взяты из его песни «Imagine».
★ Сцена, в которой Форрест Гамп получает Медаль Почёта, была смонтирована из архивной плёнки награждения рядового 1-го класса Сэмми Л. Дэвиса (19 ноября 1968 года), который имел ранения спины и ягодиц в результате «дружественного огня».
★ При каждой «смене возраста» Форреста одна вещь остаётся неизменной — в первой сцене в «новом» возрасте Форрест появляется в синей рубашке.
★ Фамилия Дженни — Каррен — фигурирует только один раз в фильме: на конверте, посланном Форресту во Вьетнам.
★ Салли Филд, игравшая маму Форреста, всего на 10 лет старше Тома Хэнкса.
★ Салли Филд ранее уже снималась вместе с Томом Хэнксом — это произошло на съемочной площадке картины «Изюминка» (1988). В этом фильме герой Хэнкса ухаживает и даже делает предложение героине Салли.
★ Изначально в качестве кандидатов на главную роль рассматривались Билл Мюррей, Джон Траволта и Чеви Чейз.
★ Во время съемок бега Тома Хэнкса часто подменял дублер, его брат Джим Хэнкс.

_________________
Показать сообщения:    

Текущее время: Сегодня 02:24

Часовой пояс: GMT



Вы не можете начинать темы
Вы не можете отвечать на сообщения
Вы не можете редактировать свои сообщения
Вы не можете удалять свои сообщения
Вы не можете голосовать в опросах
Вы не можете прикреплять файлы к сообщениям
Вы не можете скачивать файлы