Ивановский Торрент трекер
Яндекс.Погода
 

[Цитировать]
HUNTER

Формула 1 / Сезон 2014 / Этап 4 / Гран-при Китая. Шанхай / Квалификация
Вид спорта: Формула 1
Дата выпуска: 19 апреля 2014
Комментарий: Профессиональный (Двухголосый)
Язык комментариев: Русский [Алексей Попов, Наталья Фабричнова]
Описание: Гран-при Формулы 1 Китая. Шанхай. Трасса Шанхай, 56 кругов по 5451 м, общая дистанция 305.066 км, рекорд круга 1:32.238 - M Schumacher (2004).
Автор записи, источник: sokolovda, IPTVRip (Прямой поток, без перекодировки)
Качество записи: HDTVRip
Формат записи: MPEG-TS
Видео кодек: H.264/AVC
Аудио кодек: MPEG Audio
Видео: MPEG4 Video (H264), 1920x1080 (16:9), 25fps, ~10200Kbps
Аудио: MPEG Audio, 48000Hz, stereo, 2 channels, 192kbps

Скриншоты

Продолжительность

Продолжительность: 1:17:41

Тех. данные

General
ID                                       : 9823 (0x265F)
Format                                   : MPEG-TS
File size                                : 5.56 GiB
Duration                                 : 1h 17mn
Overall bit rate                         : 10.2 Mbps
Video
ID                                       : 69 (0x45)
Menu ID                                  : 1 (0x1)
Format                                   : AVC
Format/Info                              : Advanced Video Codec
Format profile                           : High@L4.0
Format settings, CABAC                   : Yes
Format settings, ReFrames                : 3 frames
Codec ID                                 : 27
Duration                                 : 1h 17mn
Bit rate                                 : 9 542 Kbps
Width                                    : 1 920 pixels
Height                                   : 1 080 pixels
Display aspect ratio                     : 16:9
Frame rate                               : 25.000 fps
Standard                                 : Component
Color space                              : YUV
Chroma subsampling                       : 4:2:0
Bit depth                                : 8 bits
Scan type                                : Interlaced
Scan order                               : Top Field First
Bits/(Pixel*Frame)                       : 0.184
Stream size                              : 5.18 GiB (93%)
Color primaries                          : BT.709-5, BT.1361, IEC 61966-2-4, SMPTE RP177
Transfer characteristics                 : BT.709-5, BT.1361
Matrix coefficients                      : BT.709-5, BT.1361, IEC 61966-2-4 709, SMPTE RP177
Audio
ID                                       : 68 (0x44)
Menu ID                                  : 1 (0x1)
Format                                   : MPEG Audio
Format version                           : Version 1
Format profile                           : Layer 2
Codec ID                                 : 3
Duration                                 : 1h 17mn
Bit rate mode                            : Constant
Bit rate                                 : 192 Kbps
Channel(s)                               : 2 channels
Sampling rate                            : 48.0 KHz
Compression mode                         : Lossy
Delay relative to video                  : -772ms
Stream size                              : 107 MiB (2%)
Language                                 : Russian


Показать сообщения:    

Текущее время: 13-Дек 03:10

Часовой пояс: UTC ± 0


Вы не можете начинать темы
Вы не можете отвечать на сообщения
Вы не можете редактировать свои сообщения
Вы не можете удалять свои сообщения
Вы не можете голосовать в опросах
Вы не можете прикреплять файлы к сообщениям
Вы не можете скачивать файлы

!ВНИМАНИЕ!
Сайт не предоставляет электронные версии произведений, а занимается лишь коллекционированием и каталогизацией ссылок, присылаемых и публикуемых на форуме нашими читателями. Если вы являетесь правообладателем какого-либо представленного материала и не желаете, чтобы ссылка на него находилась в нашем каталоге, свяжитесь с нами, и мы незамедлительно удалим ее. Файлы для обмена на трекере предоставлены пользователями сайта, и администрация не несет ответственности за их содержание. Просьба не заливать файлы, защищенные авторскими правами, а также файлы нелегального содержания!