Формула 1 / Сезон 2014 / Этап 19 / Гран-при Абу-Даби / Спорт 1 HD, RTL HD, Sky Sport 1 HD [21-23.11.14, Формула 1, DVB-S2 Remux, 1080i, RU-DE] :: Ивановский Торрент трекер
Важное объявление!
У Нас Все раздачи мультитрекерные, при нуле пиров в релизах, можете смело вставать на закачку!
Статистика раздачи
Размер:     |    Зарегистрирован:     |    Скачан:     |   
Нет
 
     
 
 
Автор Сообщение

HUNTER

Стаж:
4 года 11 месяцев
Сообщений:
66098

Репутация: 101

[+] [-]
Вне форума [Профиль] [ЛС]

Формула 1 / Сезон 2014 / Этап 19 / Гран-при Абу-Даби
Вид спорта: Формула 1
Дата/Год выпуска: 21-23.11.14
Язык комментариев: русский, немецкий
Автор записи: SashaR.
Качество: DVB-S2 Remux
Формат видео: TS

Media Info

Спорт 1 HD
J:\Раздачи\Формула 1. Сезон 2014. Этап 19. Гран-при Абу-Даби\Спорт 1 HD\Гонка.ts
General #6
ID : 6 (0x6)
Complete name : J:\Раздачи\Формула 1. Сезон 2014. Этап 19. Гран-при Абу-Даби\Спорт 1 HD\Гонка.ts
Format : MPEG-TS
File size : 12.1 GiB
Duration : 2h 37mn
Overall bit rate mode : Variable
Overall bit rate : 11.0 Mbps
Video #303
ID : 303 (0x12F)
Menu ID : 20103 (0x4E87)
Format : AVC
Format/Info : Advanced Video Codec
Format profile : High@L4.0
Format settings, CABAC : Yes
Format settings, ReFrames : 4 frames
Codec ID : 27
Duration : 2h 37mn
Bit rate : 10.2 Mbps
Width : 1 920 pixels
Height : 1 080 pixels
Display aspect ratio : 16:9
Frame rate : 25.000 fps
Standard : Component
Color space : YUV
Chroma subsampling : 4:2:0
Bit depth : 8 bits
Scan type : Interlaced
Scan order : Top Field First
Bits/(Pixel*Frame) : 0.197
Stream size : 11.2 GiB (93%)
Color primaries : BT.709
Transfer characteristics : BT.709
Matrix coefficients : BT.709
Audio #403
ID : 403 (0x193)
Menu ID : 20103 (0x4E87)
Format : MPEG Audio
Format version : Version 1
Format profile : Layer 2
Codec ID : 4
Duration : 2h 37mn
Bit rate mode : Constant
Bit rate : 192 Kbps
Channel count : 2 channels
Sampling rate : 48.0 KHz
Compression mode : Lossy
Delay relative to video : 57ms
Stream size : 216 MiB (2%)
Language : Russian

RTL HD

J:\Раздачи\Формула 1. Сезон 2014. Этап 19. Гран-при Абу-Даби\RTL HD\Гонка.ts
General #6
ID : 6 (0x6)
Complete name : J:\Раздачи\Формула 1. Сезон 2014. Этап 19. Гран-при Абу-Даби\RTL HD\Гонка.ts
Format : MPEG-TS
File size : 12.4 GiB
Duration : 3h 3mn
Overall bit rate mode : Variable
Overall bit rate : 9 643 Kbps
Video #255
ID : 255 (0xFF)
Menu ID : 61200 (0xEF10)
Format : AVC
Format/Info : Advanced Video Codec
Format profile : High@L4.0
Format settings, CABAC : Yes
Format settings, ReFrames : 4 frames
Codec ID : 27
Duration : 3h 3mn
Bit rate : 8 779 Kbps
Width : 1 920 pixels
Height : 1 080 pixels
Display aspect ratio : 16:9
Frame rate : 25.000 fps
Color space : YUV
Chroma subsampling : 4:2:0
Bit depth : 8 bits
Scan type : MBAFF
Bits/(Pixel*Frame) : 0.169
Stream size : 11.2 GiB (91%)
Audio #259
ID : 259 (0x103)
Menu ID : 61200 (0xEF10)
Format : AC-3
Format/Info : Audio Coding 3
Mode extension : CM (complete main)
Format settings, Endianness : Big
Codec ID : 6
Duration : 3h 3mn
Bit rate mode : Constant
Bit rate : 384 Kbps
Channel count : 2 channels
Channel positions : Front: L R
Sampling rate : 48.0 KHz
Bit depth : 16 bits
Compression mode : Lossy
Delay relative to video : 4ms
Stream size : 504 MiB (4%)
Language : German

Sky Sport 1 HD

J:\Раздачи\Формула 1. Сезон 2014. Этап 19. Гран-при Абу-Даби\Sky Sport 1 HD\Гонка.ts
General #6
ID : 6 (0x6)
Complete name : J:\Раздачи\Формула 1. Сезон 2014. Этап 19. Гран-при Абу-Даби\Sky Sport 1 HD\Гонка.ts
Format : MPEG-TS
File size : 20.1 GiB
Duration : 3h 49mn
Overall bit rate mode : Variable
Overall bit rate : 12.5 Mbps
Video #767
ID : 767 (0x2FF)
Menu ID : 129 (0x81)
Format : AVC
Format/Info : Advanced Video Codec
Format profile : High@L4.0
Format settings, CABAC : Yes
Format settings, ReFrames : 3 frames
Codec ID : 27
Duration : 3h 49mn
Bit rate : 11.1 Mbps
Width : 1 920 pixels
Height : 1 080 pixels
Display aspect ratio : 16:9
Frame rate : 25.000 fps
Standard : Component
Color space : YUV
Chroma subsampling : 4:2:0
Bit depth : 8 bits
Scan type : Interlaced
Scan order : Top Field First
Bits/(Pixel*Frame) : 0.214
Stream size : 17.8 GiB (89%)
Color primaries : BT.709
Transfer characteristics : BT.709
Matrix coefficients : BT.709
Audio #770
ID : 770 (0x302)
Menu ID : 129 (0x81)
Format : AC-3
Format/Info : Audio Coding 3
Mode extension : CM (complete main)
Format settings, Endianness : Big
Codec ID : 6
Duration : 3h 49mn
Bit rate mode : Constant
Bit rate : 192 Kbps
Channel count : 2 channels
Channel positions : Front: L R
Sampling rate : 48.0 KHz
Bit depth : 16 bits
Compression mode : Lossy
Delay relative to video : 104ms
Stream size : 315 MiB (2%)
Language : German
Language, more info : Clean effects
Audio #771
ID : 771 (0x303)
Menu ID : 129 (0x81)
Format : AC-3
Format/Info : Audio Coding 3
Mode extension : CM (complete main)
Format settings, Endianness : Big
Codec ID : 6
Duration : 3h 49mn
Bit rate mode : Constant
Bit rate : 384 Kbps
Channel count : 6 channels
Channel positions : Front: L C R, Side: L R, LFE
Sampling rate : 48.0 KHz
Bit depth : 16 bits
Compression mode : Lossy
Delay relative to video : 46ms
Stream size : 631 MiB (3%)
Language : German
Language, more info : Clean effects
Audio #772
ID : 772 (0x304)
Menu ID : 129 (0x81)
Format : AC-3
Format/Info : Audio Coding 3
Mode extension : CM (complete main)
Format settings, Endianness : Big
Codec ID : 6
Duration : 3h 49mn
Bit rate mode : Constant
Bit rate : 224 Kbps
Channel count : 2 channels
Channel positions : Front: L R
Sampling rate : 48.0 KHz
Bit depth : 16 bits
Compression mode : Lossy
Delay relative to video : 99ms
Stream size : 368 MiB (2%)
Language : English
Language, more info : Clean effects

Скриншоты

Спорт 1 HD

RTL HD

Sky Sport 1 HD


_________________
Показать сообщения:    

Текущее время: Сегодня 12:35

Часовой пояс: GMT



Вы не можете начинать темы
Вы не можете отвечать на сообщения
Вы не можете редактировать свои сообщения
Вы не можете удалять свои сообщения
Вы не можете голосовать в опросах
Вы не можете прикреплять файлы к сообщениям
Вы не можете скачивать файлы