Ивановский Торрент трекер
Яндекс.Погода
 

[Цитировать]
HUNTER

Формула 1 / Сезон 2014 / Этап 18 / Гран-при Бразилии / 1-я практика / Спорт 1 HD, Sky Sport 1 HD
Вид спорта: Формула 1
Дата/Год выпуска: 07.11.14
Язык комментариев: русский, немецкий
Автор записи: SashaR.
Качество: DVB-S2 Remux
Формат видео: TS

Media Info

Sky Sport 1 HD
F:\Раздачи\Формула 1. Сезон 2014. Этап 18. Гран-при Бразилии\Sky Sport 1 HD\1-я практика.ts
General #6
ID : 6 (0x6)
Complete name : F:\Раздачи\Формула 1. Сезон 2014. Этап 18. Гран-при Бразилии\Sky Sport 1 HD\1-я практика.ts
Format : MPEG-TS
File size : 8.97 GiB
Duration : 1h 41mn
Overall bit rate mode : Variable
Overall bit rate : 12.7 Mbps
Video #767
ID : 767 (0x2FF)
Menu ID : 129 (0x81)
Format : AVC
Format/Info : Advanced Video Codec
Format profile : High@L4.0
Format settings, CABAC : Yes
Format settings, ReFrames : 3 frames
Codec ID : 27
Duration : 1h 41mn
Bit rate : 11.8 Mbps
Width : 1 920 pixels
Height : 1 080 pixels
Display aspect ratio : 16:9
Frame rate : 25.000 fps
Standard : Component
Color space : YUV
Chroma subsampling : 4:2:0
Bit depth : 8 bits
Scan type : Interlaced
Scan order : Top Field First
Bits/(Pixel*Frame) : 0.228
Stream size : 8.36 GiB (93%)
Color primaries : BT.709
Transfer characteristics : BT.709
Matrix coefficients : BT.709
Audio #772
ID : 772 (0x304)
Menu ID : 129 (0x81)
Format : AC-3
Format/Info : Audio Coding 3
Mode extension : CM (complete main)
Format settings, Endianness : Big
Codec ID : 6
Duration : 1h 41mn
Bit rate mode : Constant
Bit rate : 224 Kbps
Channel count : 2 channels
Channel positions : Front: L R
Sampling rate : 48.0 KHz
Bit depth : 16 bits
Compression mode : Lossy
Delay relative to video : 120ms
Stream size : 162 MiB (2%)
Language : English
Language, more info : Clean effects

Спорт 1 HD

F:\Раздачи\Формула 1. Сезон 2014. Этап 18. Гран-при Бразилии\Спорт 1 HD\1-я практика.ts
General #6
ID : 6 (0x6)
Complete name : F:\Раздачи\Формула 1. Сезон 2014. Этап 18. Гран-при Бразилии\Спорт 1 HD\1-я практика.ts
Format : MPEG-TS
File size : 7.59 GiB
Duration : 1h 36mn
Overall bit rate mode : Variable
Overall bit rate : 11.3 Mbps
Video #303
ID : 303 (0x12F)
Menu ID : 20103 (0x4E87)
Format : AVC
Format/Info : Advanced Video Codec
Format profile : High@L4.0
Format settings, CABAC : Yes
Format settings, ReFrames : 4 frames
Codec ID : 27
Duration : 1h 36mn
Bit rate : 10.5 Mbps
Width : 1 920 pixels
Height : 1 080 pixels
Display aspect ratio : 16:9
Frame rate : 25.000 fps
Standard : Component
Color space : YUV
Chroma subsampling : 4:2:0
Bit depth : 8 bits
Scan type : Interlaced
Scan order : Top Field First
Bits/(Pixel*Frame) : 0.203
Stream size : 7.09 GiB (93%)
Color primaries : BT.709
Transfer characteristics : BT.709
Matrix coefficients : BT.709
Audio #403
ID : 403 (0x193)
Menu ID : 20103 (0x4E87)
Format : MPEG Audio
Format version : Version 1
Format profile : Layer 2
Codec ID : 4
Duration : 1h 36mn
Bit rate mode : Constant
Bit rate : 192 Kbps
Channel count : 2 channels
Sampling rate : 48.0 KHz
Compression mode : Lossy
Delay relative to video : 32ms
Stream size : 132 MiB (2%)
Language : Russian

Продолжительность

Скриншоты


Показать сообщения:    

Текущее время: 23-Окт 12:13

Часовой пояс: UTC - 1


Вы не можете начинать темы
Вы не можете отвечать на сообщения
Вы не можете редактировать свои сообщения
Вы не можете удалять свои сообщения
Вы не можете голосовать в опросах
Вы не можете прикреплять файлы к сообщениям
Вы не можете скачивать файлы

!ВНИМАНИЕ!
Сайт не предоставляет электронные версии произведений, а занимается лишь коллекционированием и каталогизацией ссылок, присылаемых и публикуемых на форуме нашими читателями. Если вы являетесь правообладателем какого-либо представленного материала и не желаете, чтобы ссылка на него находилась в нашем каталоге, свяжитесь с нами, и мы незамедлительно удалим ее. Файлы для обмена на трекере предоставлены пользователями сайта, и администрация не несет ответственности за их содержание. Просьба не заливать файлы, защищенные авторскими правами, а также файлы нелегального содержания!