Важное объявление!
У Нас Все раздачи мультитрекерные, при нуле пиров в релизах, можете смело вставать на закачку!
 
Автор Сообщение

HUNTER

Стаж:
4 года 5 месяцев
Сообщений:
60866

Репутация: 101

[+] [-]
Вне форума [Профиль] [ЛС]

Формула 1 / Сезон 2014 / Этап 16 / Гран-при России
Вид спорта: Формула 1
Дата/Год выпуска: 10-11.10.14
Язык комментариев: русский (Н. Фабричнова, А. Попов, В. Петров), немецкий, интершум
Автор записи: SashaR.
Качество: DVB-S2 Remux
Формат видео: TS

Media Info

F:\Раздачи\Формула 1. Сезон 2014. Этап 16. Гран-при России\Sky Sport 1 HD\1-я практита.ts
General #6
ID : 6 (0x6)
Complete name : F:\Раздачи\Формула 1. Сезон 2014. Этап 16. Гран-при России\Sky Sport 1 HD\1-я практита.ts
Format : MPEG-TS
File size : 9.70 GiB
Duration : 1h 40mn
Overall bit rate mode : Variable
Overall bit rate : 13.8 Mbps
Video #767
ID : 767 (0x2FF)
Menu ID : 129 (0x81)
Format : AVC
Format/Info : Advanced Video Codec
Format profile : High@L4.0
Format settings, CABAC : Yes
Format settings, ReFrames : 3 frames
Codec ID : 27
Duration : 1h 40mn
Bit rate : 12.3 Mbps
Width : 1 920 pixels
Height : 1 080 pixels
Display aspect ratio : 16:9
Frame rate : 25.000 fps
Standard : Component
Color space : YUV
Chroma subsampling : 4:2:0
Bit depth : 8 bits
Scan type : Interlaced
Scan order : Top Field First
Bits/(Pixel*Frame) : 0.237
Stream size : 8.65 GiB (89%)
Color primaries : BT.709
Transfer characteristics : BT.709
Matrix coefficients : BT.709
Audio #770
ID : 770 (0x302)
Menu ID : 129 (0x81)
Format : AC-3
Format/Info : Audio Coding 3
Mode extension : CM (complete main)
Format settings, Endianness : Big
Codec ID : 6
Duration : 1h 40mn
Bit rate mode : Constant
Bit rate : 192 Kbps
Channel count : 2 channels
Channel positions : Front: L R
Sampling rate : 48.0 KHz
Bit depth : 16 bits
Compression mode : Lossy
Delay relative to video : 85ms
Stream size : 138 MiB (1%)
Language : German
Language, more info : Clean effects
Audio #771
ID : 771 (0x303)
Menu ID : 129 (0x81)
Format : AC-3
Format/Info : Audio Coding 3
Mode extension : CM (complete main)
Format settings, Endianness : Big
Codec ID : 6
Duration : 1h 40mn
Bit rate mode : Constant
Bit rate : 384 Kbps
Channel count : 6 channels
Channel positions : Front: L C R, Side: L R, LFE
Sampling rate : 48.0 KHz
Bit depth : 16 bits
Compression mode : Lossy
Delay relative to video : 26ms
Stream size : 277 MiB (3%)
Language : German
Language, more info : Clean effects
Audio #772
ID : 772 (0x304)
Menu ID : 129 (0x81)
Format : AC-3
Format/Info : Audio Coding 3
Mode extension : CM (complete main)
Format settings, Endianness : Big
Codec ID : 6
Duration : 1h 40mn
Bit rate mode : Constant
Bit rate : 224 Kbps
Channel count : 2 channels
Channel positions : Front: L R
Sampling rate : 48.0 KHz
Bit depth : 16 bits
Compression mode : Lossy
Delay relative to video : 121ms
Stream size : 161 MiB (2%)
Language : English
Language, more info : Clean effects
F:\Раздачи\Формула 1. Сезон 2014. Этап 16. Гран-при России\Спорт 1 HD\1-я практика.ts
General #6
ID : 6 (0x6)
Complete name : F:\Раздачи\Формула 1. Сезон 2014. Этап 16. Гран-при России\Спорт 1 HD\1-я практика.ts
Format : MPEG-TS
File size : 8.52 GiB
Duration : 1h 47mn
Overall bit rate mode : Variable
Overall bit rate : 11.3 Mbps
Video #303
ID : 303 (0x12F)
Menu ID : 20103 (0x4E87)
Format : AVC
Format/Info : Advanced Video Codec
Format profile : High@L4.0
Format settings, CABAC : Yes
Format settings, ReFrames : 4 frames
Codec ID : 27
Duration : 1h 47mn
Bit rate : 10.6 Mbps
Width : 1 920 pixels
Height : 1 080 pixels
Display aspect ratio : 16:9
Frame rate : 25.000 fps
Standard : Component
Color space : YUV
Chroma subsampling : 4:2:0
Bit depth : 8 bits
Scan type : Interlaced
Scan order : Top Field First
Bits/(Pixel*Frame) : 0.204
Stream size : 7.95 GiB (93%)
Color primaries : BT.709
Transfer characteristics : BT.709
Matrix coefficients : BT.709
Audio #403
ID : 403 (0x193)
Menu ID : 20103 (0x4E87)
Format : MPEG Audio
Format version : Version 1
Format profile : Layer 2
Codec ID : 4
Duration : 1h 47mn
Bit rate mode : Constant
Bit rate : 192 Kbps
Channel count : 2 channels
Sampling rate : 48.0 KHz
Compression mode : Lossy
Delay relative to video : 6ms
Stream size : 148 MiB (2%)
Language : Russian

Продолжительность

Скриншоты



_________________
Показать сообщения:    

Текущее время: Сегодня 13:12

Часовой пояс: GMT



Вы не можете начинать темы
Вы не можете отвечать на сообщения
Вы не можете редактировать свои сообщения
Вы не можете удалять свои сообщения
Вы не можете голосовать в опросах
Вы не можете прикреплять файлы к сообщениям
Вы не можете скачивать файлы
Наши партнеры: интернет магазин Ивановского трикотажа textilla.ru