Формула 1 / Сезон 2014 / Этап 15 / Гран-при Японии / 1-я, 2-я, 3-я практика, Квалификация, Гонка / Спорт 1 HD, Sky Sport 1 HD, RTL HD [03.10.14, Формула 1, DVB-S2 Remux, 1080i, RU-DE] :: Ивановский Торрент трекер
Важное объявление!
У Нас Все раздачи мультитрекерные, при нуле пиров в релизах, можете смело вставать на закачку!
Статистика раздачи
Размер:     |    Зарегистрирован:     |    Скачан:     |   
Нет
 
     
 
 
Автор Сообщение

HUNTER

Стаж:
4 года 11 месяцев
Сообщений:
66098

Репутация: 101

[+] [-]
Вне форума [Профиль] [ЛС]

Формула 1 / Сезон 2014 / Этап 15 / Гран-при Японии
Вид спорта: Формула 1
Дата/Год выпуска: 03.10.14
Язык комментариев: русский, немецкий
Автор записи: SashaR.
Качество: DVB-S2 Remux
Формат видео: TS

Media Info

Спорт 1 HD
G:\Раздачи\Формула 1. Сезон 2014. Этап 15. Гран-при Японии\Спорт 1 HD\1-я практика.ts
General #6
ID : 6 (0x6)
Complete name : G:\Раздачи\Формула 1. Сезон 2014. Этап 15. Гран-при Японии\Спорт 1 HD\1-я практика.ts
Format : MPEG-TS
File size : 8.53 GiB
Duration : 1h 38mn
Overall bit rate mode : Variable
Overall bit rate : 12.3 Mbps
Video #303
ID : 303 (0x12F)
Menu ID : 20103 (0x4E87)
Format : AVC
Format/Info : Advanced Video Codec
Format profile : High@L4.0
Format settings, CABAC : Yes
Format settings, ReFrames : 4 frames
Codec ID : 27
Duration : 1h 38mn
Bit rate : 11.5 Mbps
Width : 1 920 pixels
Height : 1 080 pixels
Display aspect ratio : 16:9
Frame rate : 25.000 fps
Standard : Component
Color space : YUV
Chroma subsampling : 4:2:0
Bit depth : 8 bits
Scan type : Interlaced
Scan order : Top Field First
Bits/(Pixel*Frame) : 0.223
Stream size : 7.97 GiB (93%)
Color primaries : BT.709
Transfer characteristics : BT.709
Matrix coefficients : BT.709
Audio #403
ID : 403 (0x193)
Menu ID : 20103 (0x4E87)
Format : MPEG Audio
Format version : Version 1
Format profile : Layer 2
Codec ID : 4
Duration : 1h 38mn
Bit rate mode : Constant
Bit rate : 192 Kbps
Channel count : 2 channels
Sampling rate : 48.0 KHz
Compression mode : Lossy
Delay relative to video : -38ms
Stream size : 136 MiB (2%)
Language : Russian

Sky Sport 1 HD

G:\Раздачи\Формула 1. Сезон 2014. Этап 15. Гран-при Японии\Sky Sport 1 HD\@Live F1_ 2. Freies Training in Suzuka.ts
General #6
ID : 6 (0x6)
Complete name : G:\Раздачи\Формула 1. Сезон 2014. Этап 15. Гран-при Японии\Sky Sport 1 HD\@Live F1_ 2. Freies Training in Suzuka.ts
Format : MPEG-TS
File size : 9.54 GiB
Duration : 1h 44mn
Overall bit rate mode : Variable
Overall bit rate : 13.1 Mbps
Video #767
ID : 767 (0x2FF)
Menu ID : 129 (0x81)
Format : AVC
Format/Info : Advanced Video Codec
Format profile : High@L4.0
Format settings, CABAC : Yes
Format settings, ReFrames : 3 frames
Codec ID : 27
Duration : 1h 44mn
Bit rate : 11.7 Mbps
Width : 1 920 pixels
Height : 1 080 pixels
Display aspect ratio : 16:9
Frame rate : 25.000 fps
Standard : Component
Color space : YUV
Chroma subsampling : 4:2:0
Bit depth : 8 bits
Scan type : Interlaced
Scan order : Top Field First
Bits/(Pixel*Frame) : 0.225
Stream size : 8.48 GiB (89%)
Color primaries : BT.709
Transfer characteristics : BT.709
Matrix coefficients : BT.709
Audio #770
ID : 770 (0x302)
Menu ID : 129 (0x81)
Format : AC-3
Format/Info : Audio Coding 3
Mode extension : CM (complete main)
Format settings, Endianness : Big
Codec ID : 6
Duration : 1h 44mn
Bit rate mode : Constant
Bit rate : 192 Kbps
Channel count : 2 channels
Channel positions : Front: L R
Sampling rate : 48.0 KHz
Bit depth : 16 bits
Compression mode : Lossy
Delay relative to video : 106ms
Stream size : 143 MiB (1%)
Language : German
Language, more info : Clean effects
Audio #771
ID : 771 (0x303)
Menu ID : 129 (0x81)
Format : AC-3
Format/Info : Audio Coding 3
Mode extension : CM (complete main)
Format settings, Endianness : Big
Codec ID : 6
Duration : 1h 44mn
Bit rate mode : Constant
Bit rate : 384 Kbps
Channel count : 6 channels
Channel positions : Front: L C R, Side: L R, LFE
Sampling rate : 48.0 KHz
Bit depth : 16 bits
Compression mode : Lossy
Delay relative to video : 47ms
Stream size : 286 MiB (3%)
Language : German
Language, more info : Clean effects
Audio #772
ID : 772 (0x304)
Menu ID : 129 (0x81)
Format : AC-3
Format/Info : Audio Coding 3
Mode extension : CM (complete main)
Format settings, Endianness : Big
Codec ID : 6
Duration : 1h 44mn
Bit rate mode : Constant
Bit rate : 224 Kbps
Channel count : 2 channels
Channel positions : Front: L R
Sampling rate : 48.0 KHz
Bit depth : 16 bits
Compression mode : Lossy
Delay relative to video : 46ms
Stream size : 167 MiB (2%)
Language : English
Language, more info : Clean effects

RTL HD

G:\Раздачи\Формула 1. Сезон 2014. Этап 15. Гран-при Японии\RTL HD\Квалификация.ts
General #6
ID : 6 (0x6)
Complete name : G:\Раздачи\Формула 1. Сезон 2014. Этап 15. Гран-при Японии\RTL HD\Квалификация.ts
Format : MPEG-TS
File size : 6.57 GiB
Duration : 1h 18mn
Overall bit rate mode : Variable
Overall bit rate : 11.9 Mbps
Video #255
ID : 255 (0xFF)
Menu ID : 61200 (0xEF10)
Format : AVC
Format/Info : Advanced Video Codec
Format profile : High@L4.0
Format settings, CABAC : Yes
Format settings, ReFrames : 4 frames
Codec ID : 27
Duration : 1h 18mn
Bit rate : 11.0 Mbps
Width : 1 920 pixels
Height : 1 080 pixels
Display aspect ratio : 16:9
Frame rate : 25.000 fps
Color space : YUV
Chroma subsampling : 4:2:0
Bit depth : 8 bits
Scan type : MBAFF
Bits/(Pixel*Frame) : 0.211
Stream size : 6.03 GiB (92%)
Audio #259
ID : 259 (0x103)
Menu ID : 61200 (0xEF10)
Format : AC-3
Format/Info : Audio Coding 3
Mode extension : CM (complete main)
Format settings, Endianness : Big
Codec ID : 6
Duration : 1h 18mn
Bit rate mode : Constant
Bit rate : 384 Kbps
Channel count : 2 channels
Channel positions : Front: L R
Sampling rate : 48.0 KHz
Bit depth : 16 bits
Compression mode : Lossy
Delay relative to video : 108ms
Stream size : 216 MiB (3%)
Language : German

Продолжительность

s

_________________
Показать сообщения:    

Текущее время: Сегодня 14:12

Часовой пояс: GMT



Вы не можете начинать темы
Вы не можете отвечать на сообщения
Вы не можете редактировать свои сообщения
Вы не можете удалять свои сообщения
Вы не можете голосовать в опросах
Вы не можете прикреплять файлы к сообщениям
Вы не можете скачивать файлы