Важное объявление!
У Нас Все раздачи мультитрекерные, при нуле пиров в релизах, можете смело вставать на закачку!
Статистика раздачи
Размер:     |    Зарегистрирован:     |    Скачан:     |   
Нет
 
     
 
 
Автор Сообщение

HUNTER

Стаж:
5 лет
Сообщений:
67947

Репутация: 101

[+] [-]
Вне форума [Профиль] [ЛС]

Формула 1. Сезон 2014. Этап 14. Гран-при Сингапура. Парад пилотов. Feed
Вид спорта: Формула 1
Дата/Год выпуска: 21.09.2014
Язык комментариев: Интершум / Natural sounds
Описание: Континентальный европейский сезон закончен. Команды отправляются в финальное турне, в ходе которого посетят Сингапур, Японию, Россию, США, Бразилию и Абу-Даби.
Гран При Сингапура – первая в истории чемпионата ночная гонка. Премьера состоялась в 2008 году, а теперь при искусственном освещении проводятся этапы в Абу-Даби и Бахрейне.
После победы Льюиса Хэмилтона в Монце разрыв между двумя лидерами чемпионата сократился и составляет 22 очка. Борьба за титул продолжается.
В этой раздаче - парад пилотов. Традиционное шоу перед началом гонки. Не пропустите его, если планируете посетить ГП в Сочи. Приятного просмотра
Качество: HDTVRip
Формат видео: MP4
Видео: x264, 1280x720, 25 fps, ~1800 kbps
Аудио: AAC, 2ch, 48 kHz, ~96 kb/s

MediaInfo

General
Complete name : D:\DVD\F1\Formula1.2014.Round14.Singapore.Race.Drivers.Parade.720p.x264.Natural.Sounds.mp4
Format : MPEG-4
Format profile : Base Media / Version 2
Codec ID : mp42
File size : 290 MiB
Duration : 21mn 18s
Overall bit rate mode : Variable
Overall bit rate : 1 905 Kbps
Encoded date : UTC 2014-09-21 11:30:51
Tagged date : UTC 2014-09-21 13:12:54
Writing application : HandBrake rev294 2014091899
Video
ID : 1
Format : AVC
Format/Info : Advanced Video Codec
Format profile : High@L4.0
Format settings, CABAC : Yes
Format settings, ReFrames : 6 frames
Codec ID : avc1
Codec ID/Info : Advanced Video Coding
Duration : 21mn 18s
Bit rate mode : Variable
Bit rate : 1 797 Kbps
Width : 1 280 pixels
Height : 720 pixels
Display aspect ratio : 16:9
Frame rate mode : Constant
Frame rate : 25.000 fps
Color space : YUV
Chroma subsampling : 4:2:0
Bit depth : 8 bits
Scan type : Progressive
Bits/(Pixel*Frame) : 0.078
Stream size : 274 MiB (94%)
Writing library : Provided by x264 :: H.264/MPEG-4 AVC codec -V 1.6.07
Encoded date : UTC 2014-09-21 11:30:51
Tagged date : UTC 2014-09-21 13:12:54
Color primaries : BT.709
Transfer characteristics : BT.709
Matrix coefficients : BT.709
Audio
ID : 2
Format : AAC
Format/Info : Advanced Audio Codec
Format profile : LC
Codec ID : 40
Duration : 21mn 17s
Bit rate mode : Variable
Bit rate : 96.0 Kbps
Maximum bit rate : 103 Kbps
Channel count : 2 channels
Channel positions : Front: L R
Sampling rate : 44.1 KHz
Compression mode : Lossy
Delay relative to video : 80ms
Stream size : 14.6 MiB (5%)
Encoded date : UTC 2014-09-21 11:30:51
Tagged date : UTC 2014-09-21 13:12:54

Продолжительность

00:21:28

Скриншоты


_________________
Показать сообщения:    

Текущее время: Сегодня 10:50

Часовой пояс: GMT



Вы не можете начинать темы
Вы не можете отвечать на сообщения
Вы не можете редактировать свои сообщения
Вы не можете удалять свои сообщения
Вы не можете голосовать в опросах
Вы не можете прикреплять файлы к сообщениям
Вы не можете скачивать файлы