Ивановский Торрент трекер
Яндекс.Погода
 

[Цитировать]
HUNTER

Формула 1. Сезон 2014. Этап 11. Гран-при Венгрии. Квалификация (Onboard). Feed
Вид спорта: F1
Дата/Год выпуска: 26.07.2014
Язык комментариев: Интершум / Natural Sounds
Описание: Запись онборда квалификации. Без комментариев, только звук болидов. Торрент-файл обновлен на более качественный. Перекачайте, для коллекции самое то
Качество: HDTVRip
Формат видео: MP4
Видео: x264, 1280x720 25 fps, ~1800 kbps
Аудио: AAC, 2ch, 48 kHz, ~96 kb/s

MediaInfo

General
Complete name : D:\DVD\F1\Formula1.2014.Round11.Hungary.Qualifying.OnBoard.720p.x264.Natural.Sounds.mp4
Format : MPEG-4
Format profile : Base Media / Version 2
Codec ID : mp42
File size : 939 MiB
Duration : 1h 8mn
Overall bit rate mode : Variable
Overall bit rate : 1 908 Kbps
Encoded date : UTC 2014-07-26 17:25:23
Tagged date : UTC 2014-07-26 21:41:09
Writing application : HandBrake rev24756 2014072499
Video
ID : 1
Format : AVC
Format/Info : Advanced Video Codec
Format profile : High@L4.0
Format settings, CABAC : Yes
Format settings, ReFrames : 6 frames
Codec ID : avc1
Codec ID/Info : Advanced Video Coding
Duration : 1h 8mn
Bit rate mode : Variable
Bit rate : 1 800 Kbps
Width : 1 280 pixels
Height : 720 pixels
Display aspect ratio : 16:9
Frame rate mode : Constant
Frame rate : 25.000 fps
Color space : YUV
Chroma subsampling : 4:2:0
Bit depth : 8 bits
Scan type : Progressive
Bits/(Pixel*Frame) : 0.078
Stream size : 886 MiB (94%)
Writing library : Provided by x264 :: H.264/MPEG-4 AVC codec -V 1.6.07
Encoded date : UTC 2014-07-26 17:25:23
Tagged date : UTC 2014-07-26 21:41:08
Color primaries : BT.709
Transfer characteristics : BT.709
Matrix coefficients : BT.709
Audio
ID : 2
Format : AAC
Format/Info : Advanced Audio Codec
Format profile : LC
Codec ID : 40
Duration : 1h 8mn
Bit rate mode : Variable
Bit rate : 96.0 Kbps
Maximum bit rate : 104 Kbps
Channel count : 2 channels
Channel positions : Front: L R
Sampling rate : 44.1 KHz
Compression mode : Lossy
Delay relative to video : 80ms
Stream size : 47.3 MiB (5%)
Encoded date : UTC 2014-07-26 17:25:23
Tagged date : UTC 2014-07-26 21:41:08

Продолжительность

01:08:50

Скриншоты

Показать сообщения:    

Текущее время: 21-Сен 00:40

Часовой пояс: UTC - 1


Вы не можете начинать темы
Вы не можете отвечать на сообщения
Вы не можете редактировать свои сообщения
Вы не можете удалять свои сообщения
Вы не можете голосовать в опросах
Вы не можете прикреплять файлы к сообщениям
Вы не можете скачивать файлы

!ВНИМАНИЕ!
Сайт не предоставляет электронные версии произведений, а занимается лишь коллекционированием и каталогизацией ссылок, присылаемых и публикуемых на форуме нашими читателями. Если вы являетесь правообладателем какого-либо представленного материала и не желаете, чтобы ссылка на него находилась в нашем каталоге, свяжитесь с нами, и мы незамедлительно удалим ее. Файлы для обмена на трекере предоставлены пользователями сайта, и администрация не несет ответственности за их содержание. Просьба не заливать файлы, защищенные авторскими правами, а также файлы нелегального содержания!