Важное объявление!
У Нас Все раздачи мультитрекерные, при нуле пиров в релизах, можете смело вставать на закачку!
Статистика раздачи
Размер:     |    Зарегистрирован:     |    Скачан:     |   
Нет
 
     
 
 
Автор Сообщение

HUNTER

Стаж:
5 лет 1 месяц
Сообщений:
68426

Репутация: 101

[+] [-]
Вне форума [Профиль] [ЛС]

Формула 1. Сезон 2014. Этап 11. Гран-при Венгрии. Гонка (Onboard). Feed
Вид спорта: Формула 1
Дата/Год выпуска: 27.07.2014
Язык комментариев: Интершум / Natural Sounds
Описание: Трансляция венгерской гонки с бортовых камер болидов Ф1. Лучшего эффекта присутствия не придумать! Приятного просмотра
Качество: HDTVRip
Формат видео: MP4
Видео: x264, 1280x720 25 fps, ~1800 kbps
Аудио: AAC, 2ch, 48 kHz, ~96 kb/s

MediaInfo

General
Complete name : D:\DVD\F1\Formula1.2014.Round11.Hungary.Race.OnBoard.720p.x264.Natural.Sounds.mp4
Format : MPEG-4
Format profile : Base Media / Version 2
Codec ID : mp42
File size : 1.63 GiB
Duration : 2h 2mn
Overall bit rate mode : Variable
Overall bit rate : 1 908 Kbps
Encoded date : UTC 2014-07-27 18:01:46
Tagged date : UTC 2014-07-28 03:00:18
Writing application : HandBrake rev24756 2014072499
Video
ID : 1
Format : AVC
Format/Info : Advanced Video Codec
Format profile : High@L4.0
Format settings, CABAC : Yes
Format settings, ReFrames : 6 frames
Codec ID : avc1
Codec ID/Info : Advanced Video Coding
Duration : 2h 2mn
Bit rate mode : Variable
Bit rate : 1 800 Kbps
Width : 1 280 pixels
Height : 720 pixels
Display aspect ratio : 16:9
Frame rate mode : Constant
Frame rate : 25.000 fps
Color space : YUV
Chroma subsampling : 4:2:0
Bit depth : 8 bits
Scan type : Progressive
Bits/(Pixel*Frame) : 0.078
Stream size : 1.53 GiB (94%)
Writing library : Provided by x264 :: H.264/MPEG-4 AVC codec -V 1.6.07
Encoded date : UTC 2014-07-27 18:01:46
Tagged date : UTC 2014-07-28 03:00:17
Color primaries : BT.709
Transfer characteristics : BT.709
Matrix coefficients : BT.709
Audio
ID : 2
Format : AAC
Format/Info : Advanced Audio Codec
Format profile : LC
Codec ID : 40
Duration : 2h 1mn
Bit rate mode : Variable
Bit rate : 96.0 Kbps
Maximum bit rate : 104 Kbps
Channel count : 2 channels
Channel positions : Front: L R
Sampling rate : 44.1 KHz
Compression mode : Lossy
Delay relative to video : 80ms
Stream size : 83.8 MiB (5%)
Encoded date : UTC 2014-07-27 18:01:46
Tagged date : UTC 2014-07-28 03:00:17

Продолжительность

02:02:00

Скриншоты


_________________
Показать сообщения:    

Текущее время: Сегодня 00:06

Часовой пояс: GMT



Вы не можете начинать темы
Вы не можете отвечать на сообщения
Вы не можете редактировать свои сообщения
Вы не можете удалять свои сообщения
Вы не можете голосовать в опросах
Вы не можете прикреплять файлы к сообщениям
Вы не можете скачивать файлы