Ивановский Торрент трекер
Яндекс.Погода
 

[Цитировать]
HUNTER

Формула 1. Сезон 2014. Этап 07. Канада. 3-я практика, Квалификация, Гонка. RTL HD
Вид спорта: Формула 1
Дата/Год выпуска: 08.06.14
Язык комментариев: немецкий
Автор записи: SashaR.
Качество: DVB-S2 Remux
Формат видео: TS
Видео: AVC, 1920x1080 (16:9), 9 465 Kbps, 25 fps
Аудио: AC-3, 384 Kbps, 48.0 kHz, 2 channels

Media Info

H:\Раздачи\Формула 1. Сезон 2014. Этап 7. Гран-при Канады (RTL HD)\Гонка.ts
General #6
ID : 6 (0x6)
Complete name : H:\Раздачи\Формула 1. Сезон 2014. Этап 7. Гран-при Канады (RTL HD)\Гонка.ts
Format : MPEG-TS
File size : 10.8 GiB
Duration : 2h 29mn
Overall bit rate mode : Variable
Overall bit rate : 10.4 Mbps
Video #255
ID : 255 (0xFF)
Menu ID : 61200 (0xEF10)
Format : AVC
Format/Info : Advanced Video Codec
Format profile : High@L4.0
Format settings, CABAC : Yes
Format settings, ReFrames : 4 frames
Codec ID : 27
Duration : 2h 29mn
Bit rate : 9 465 Kbps
Width : 1 920 pixels
Height : 1 080 pixels
Display aspect ratio : 16:9
Frame rate : 25.000 fps
Color space : YUV
Chroma subsampling : 4:2:0
Bit depth : 8 bits
Scan type : MBAFF
Bits/(Pixel*Frame) : 0.183
Stream size : 9.85 GiB (91%)
Audio #259
ID : 259 (0x103)
Menu ID : 61200 (0xEF10)
Format : AC-3
Format/Info : Audio Coding 3
Mode extension : CM (complete main)
Format settings, Endianness : Big
Codec ID : 6
Duration : 2h 29mn
Bit rate mode : Constant
Bit rate : 384 Kbps
Channel count : 2 channels
Channel positions : Front: L R
Sampling rate : 48.0 KHz
Bit depth : 16 bits
Compression mode : Lossy
Delay relative to video : -27ms
Stream size : 409 MiB (4%)
Language : German

Продолжительность

3-я практика - 00:44:23
Квалификация - 00:58:41
Гонка - 02:29:00

Скриншоты

Показать сообщения:    

Текущее время: 22-Окт 00:09

Часовой пояс: UTC - 1


Вы не можете начинать темы
Вы не можете отвечать на сообщения
Вы не можете редактировать свои сообщения
Вы не можете удалять свои сообщения
Вы не можете голосовать в опросах
Вы не можете прикреплять файлы к сообщениям
Вы не можете скачивать файлы

!ВНИМАНИЕ!
Сайт не предоставляет электронные версии произведений, а занимается лишь коллекционированием и каталогизацией ссылок, присылаемых и публикуемых на форуме нашими читателями. Если вы являетесь правообладателем какого-либо представленного материала и не желаете, чтобы ссылка на него находилась в нашем каталоге, свяжитесь с нами, и мы незамедлительно удалим ее. Файлы для обмена на трекере предоставлены пользователями сайта, и администрация не несет ответственности за их содержание. Просьба не заливать файлы, защищенные авторскими правами, а также файлы нелегального содержания!