Ивановский Торрент трекер
Яндекс.Погода
 

[Цитировать]
HUNTER

Формула 1. Сезон 2013. Официальные видеоклипы. Race Edits + Onboards. Formula1.com
Вид спорта: F1 Highlights
Дата/Год выпуска: 2013
Язык комментариев: Английский / English
Описание: По просьбам пользователей трекера выкладываю клипы с официального сайта за сезон 2013 в обновленном качестве (7000 kb/s). К сожалению, там они представлены только с Гран при Кореи, но если каким-то образом у вас будет ссылка на клипы других этапов - с удовольствием добавлю в релиз.
Выражаю брагодарность 2UncleanerLake53 за идею релиза и видео Гран при Сингапура. Thanks!
Приятного просмотра
Качество: SiteRip
Формат видео: MP4
Видео: H.264, 1920x1080, 25 fps, 7000 kb/s
Аудио: AAC, 2 ch, 48 kHz, ~96 kb/s

MediaInfo

Onboards
General
Complete name : D:\DVD\F1\F1.2013.Official.Videos\Onboards\14.Korean.GP.2013.Onboard.Vettel.mp4
Format : MPEG-4
Format profile : Base Media
Codec ID : isom
File size : 97.1 MiB
Duration : 1mn 54s
Overall bit rate mode : Variable
Overall bit rate : 7 095 Kbps
Writing application : Lavf54.59.106
Video
ID : 1
Format : AVC
Format/Info : Advanced Video Codec
Format profile : High@L4.0
Format settings, CABAC : Yes
Format settings, ReFrames : 3 frames
Codec ID : avc1
Codec ID/Info : Advanced Video Coding
Duration : 1mn 54s
Bit rate mode : Variable
Bit rate : 7 000 Kbps
Width : 1 920 pixels
Height : 1 080 pixels
Display aspect ratio : 16:9
Frame rate mode : Constant
Frame rate : 25.000 fps
Standard : PAL
Color space : YUV
Chroma subsampling : 4:2:0
Bit depth : 8 bits
Scan type : Progressive
Bits/(Pixel*Frame) : 0.135
Stream size : 95.7 MiB (99%)
Color primaries : BT.709
Transfer characteristics : BT.709
Matrix coefficients : BT.709
Audio
ID : 2
Format : AAC
Format/Info : Advanced Audio Codec
Format profile : LC
Codec ID : 40
Duration : 1mn 54s
Bit rate mode : Constant
Bit rate : 93.4 Kbps
Channel count : 2 channels
Channel positions : Front: L R
Sampling rate : 48.0 KHz
Compression mode : Lossy
Stream size : 1.28 MiB (1%)

Race Edits

General
Complete name : D:\DVD\F1\F1.2013.Official.Videos\Race.Edits\19.Brazilian.GP.2013.Race.Edit.mp4
Format : MPEG-4
Format profile : Base Media
Codec ID : isom
File size : 140 MiB
Duration : 2mn 46s
Overall bit rate mode : Variable
Overall bit rate : 7 052 Kbps
Writing application : Lavf54.59.106
Video
ID : 1
Format : AVC
Format/Info : Advanced Video Codec
Format profile : High@L4.0
Format settings, CABAC : Yes
Format settings, ReFrames : 3 frames
Codec ID : avc1
Codec ID/Info : Advanced Video Coding
Duration : 2mn 46s
Bit rate mode : Variable
Bit rate : 7 000 Kbps
Width : 1 920 pixels
Height : 1 080 pixels
Display aspect ratio : 16:9
Frame rate mode : Constant
Frame rate : 25.000 fps
Standard : PAL
Color space : YUV
Chroma subsampling : 4:2:0
Bit depth : 8 bits
Scan type : Progressive
Bits/(Pixel*Frame) : 0.135
Stream size : 138 MiB (99%)
Color primaries : BT.709
Transfer characteristics : BT.709
Matrix coefficients : BT.709
Audio
ID : 2
Format : AAC
Format/Info : Advanced Audio Codec
Format profile : LC
Codec ID : 40
Duration : 2mn 46s
Bit rate mode : Constant
Bit rate : 93.4 Kbps
Channel count : 2 channels

Продолжительность

13 x ~00:02:00

Скриншоты


Формула 1. Сезон 2014. Официальные видеоклипы. Race Edits + Onboards 1080p

http://rutracker.org/forum/viewtopic.php?t=4777197


Показать сообщения:    

Текущее время: 15-Дек 18:03

Часовой пояс: UTC ± 0


Вы не можете начинать темы
Вы не можете отвечать на сообщения
Вы не можете редактировать свои сообщения
Вы не можете удалять свои сообщения
Вы не можете голосовать в опросах
Вы не можете прикреплять файлы к сообщениям
Вы не можете скачивать файлы

!ВНИМАНИЕ!
Сайт не предоставляет электронные версии произведений, а занимается лишь коллекционированием и каталогизацией ссылок, присылаемых и публикуемых на форуме нашими читателями. Если вы являетесь правообладателем какого-либо представленного материала и не желаете, чтобы ссылка на него находилась в нашем каталоге, свяжитесь с нами, и мы незамедлительно удалим ее. Файлы для обмена на трекере предоставлены пользователями сайта, и администрация не несет ответственности за их содержание. Просьба не заливать файлы, защищенные авторскими правами, а также файлы нелегального содержания!