Важное объявление!
У Нас Все раздачи мультитрекерные, при нуле пиров в релизах, можете смело вставать на закачку!
Статистика раздачи
Размер:     |    Зарегистрирован:     |    Скачан:     |   
Нет
 
     
 
 
Автор Сообщение

K.I.N.G

Стаж:
3 года 11 месяцев
Сообщений:
16

Репутация: 7

[+] [-]
Вне форума [Профиль] [ЛС]

-
Год выпуска: 2015
Страна: США
Жанр: фантастика
Продолжительность: ~ 00:43:00
Перевод: Профессиональный (многоголосый закадровый) | LostFilm
Режиссёр: Дэвид Наттер
В ролях: Грант Гастин, Кэндис Паттон, Рик Коснетт, Даниэль Панабэйкер, Карлос Вальдес, Томас Кэвэна, Джесси Л. Мартин, Джон Уэсли Шипп, Стивен Амелл, Ёсиэ Бэнкрофт и др.-Описание: Из-за несчастного случая судмедэксперт Барри Аллен приобретает способность передвигаться с невероятной скоростью. Этот случай делает из него супергероя, которым он всегда мечтал стать. Защищая город, как ангел-хранитель, делая невозможное, спасая жизни со скоростью вспышки, по подсказке Оливера Куина (Стрела), он берёт себе и соответствующее имя - Флэш.- Качество: WEB-DLRip
Формат: AVI
Видео: XviD, 720x400 (16:9), 23,976 fps, ~1500 kbps
Аудио #1: MP3, 48 kHz, 2 ch, 128 kbps, CBR - Rus
Аудио #2: MP3, 48 kHz, 2 ch, 128 kbps, CBR - Eng
Субтитры: отсутствуют-

mediainfo

Общее
Формат : AVI
Формат/Информация : Audio Video Interleave
Размер файла : 543 Мбайт
Продолжительность : 42 м.
Общий поток : 1788 Кбит/сек
Программа кодирования : VirtualDubMod 1.5.10.3 | www.virtualdub-fr.org || (build 2550/release)
Библиотека кодирования : VirtualDubMod build 2550/release
Видео
Идентификатор : 0
Формат : MPEG-4 Visual
Профиль формата : Advanced Simple@L5
Параметр BVOP формата : 2
Параметр QPel формата : Нет
Параметр GMC формата : Без точки перехода
Параметр матрицы формата : Default (MPEG)
Идентификатор кодека : XVID
Идентификатор кодека/Подсказка : XviD
Продолжительность : 42 м.
Битрейт : 1518 Кбит/сек
Ширина : 720 пикселей
Высота : 400 пикселей
Соотношение сторон : 16:9
Частота кадров : 23,976 кадра/сек
Цветовое пространство : YUV
Субдискретизация насыщенности : 4:2:0
Битовая глубина : 8 бит
Тип развёртки : Прогрессивная
Метод сжатия : С потерями
Бит/(Пиксели*Кадры) : 0.220
Размер потока : 461 Мбайт (85%)
Библиотека кодирования : XviD 73
Аудио #1
Идентификатор : 1
Формат : MPEG Audio
Версия формата : Version 1
Профиль формата : Layer 3
Идентификатор кодека : 55
Идентификатор кодека/Подсказка : MP3
Продолжительность : 42 м.
Вид битрейта : Постоянный
Битрейт : 128 Кбит/сек
Каналы : 2 канала
Частота : 48,0 КГц
Метод сжатия : С потерями
Размер потока : 38,8 Мбайт (7%)
Выравнивание : Соединение по промежуткам
Продолжительность промежутка : 42 мс. (1,00 видеокадр)
Время предзагрузки промежутка : 504 мс.
Аудио #2
Идентификатор : 2
Формат : MPEG Audio
Версия формата : Version 1
Профиль формата : Layer 3
Режим : Joint stereo
Расширение режима : MS Stereo
Идентификатор кодека : 55
Идентификатор кодека/Подсказка : MP3
Продолжительность : 42 м.
Вид битрейта : Постоянный
Битрейт : 128 Кбит/сек
Каналы : 2 канала
Частота : 48,0 КГц
Метод сжатия : С потерями
Размер потока : 38,8 Мбайт (7%)
Выравнивание : Соединение по промежуткам
Продолжительность промежутка : 42 мс. (1,00 видеокадр)
Время предзагрузки промежутка : 504 мс.
Библиотека кодирования : LAME3.99.5
-

Раздача ведется путем добавления новых серий

Когда раздача ведётся путём добавления новых серий, при каждом добавлении создётся новый торрент. Чтобы начать докачку новой серии, пользователям необходимо сделать следующее:
(1) остановить скачивание,
(2) удалить старый торрент у себя из клиента (старые серии удалять не надо),
(3) скачать новый торрент и запустить его у себя в клиенте вместо старого, при этом указать клиенту путь в старую папку, куда и должно происходить скачивание новых серий.
Ваш клиент при этом должен произвести хеширование (проверку) старой папки (если не производит сам - помогите ему сделать это), и будет докачивать только те серии, которых у вас ещё нет. Старые серии при этом не удаляются, а продолжают раздаваться!
Eсли вы уже удалили старые серии, то предотвратить повторную закачку старых серий можно, отжав галочку в соответсвующих местах при запуске нового торрента. По возможности, желательно не удалять старые серии как можно дольше, чтобы релизёр не столько продолжал раздавать старые серии, а смог сконцентрироваться на новых.
Показать сообщения:    

Текущее время: Сегодня 22:51

Часовой пояс: GMT



Вы не можете начинать темы
Вы не можете отвечать на сообщения
Вы не можете редактировать свои сообщения
Вы не можете удалять свои сообщения
Вы не можете голосовать в опросах
Вы не можете прикреплять файлы к сообщениям
Вы не можете скачивать файлы