Ивановский Торрент трекер
Яндекс.Погода
 

[Цитировать]
HUNTER

Флиппер / Flipper
Страна: США
Студия: Metro-Goldwyn-Mayer
Жанр: Семейный, приключения
Год выпуска: 1963
Продолжительность: 01:30:22
Перевод 1: Профессиональный (дублированный)
Перевод 2: Профессиональный (многоголосый закадровый)
Cубтитры: русские, английские
Оригинальная аудиодорожка: английский
Режиссер: Джеймс Б. Кларк / James B. Clark
В ролях: Чак Коннорс, Люк Хэлпин, Конни Скотт, Джейн Роуз, Джо Хиггинс, Робертсон Уайт, George Applewhite, Кэтлин Магвайр
Описание: История о дружбе мальчика Сэнди и дельфина по имени Флиппер. Этот фильм первая история о дельфине Флиппер.
Тип релиза: WEB-DL 720p
Контейнер: MKV
Видео: MPEG-4 AVC Video, 1276x720 / 1,77:1 (16:9) / ~4000 kbps / 23,976 fps
Аудио 1: Russian: AC3 2.0 ch, 48 kHz, 192 kbps (Dub)
Аудио 2: Russian: AC3 2.0 ch, 48 kHz, 192 kbps (MVO)
Аудио 3: English: AAC (LC), 2.0 ch, 48 kHz, ~160 kbps
Формат субтитров: softsub (SRT)

MediaInfo

ОбщееУникальный идентификатор : 183256925935501680778033332455653463177 (0x89DE0007B4391ABFAC3C109BD69F5489)Полное имя : E:\FILMS\Flipper.1963.720p.WEB-DL.mkvФормат : MatroskaВерсия формата : Version 4 / Version 2Размер файла : 2,99 ГбайтПродолжительность : 1 ч. 30 м.Общий поток : 4739 Кбит/секНазвание фильма : Flipper 1963Дата кодирования : UTC 2014-01-27 20:05:31Программа кодирования : mkvmerge v6.7.0 ('Back to the Ground') 32bit built on Jan 8 2014 15:03:17Библиотека кодирования : libebml v1.3.0 + libmatroska v1.4.1
ВидеоИдентификатор : 1Формат : AVCФормат/Информация : Advanced Video CodecПрофиль формата : High@L3.1Параметр CABAC формата : НетПараметр ReFrames формата : 2 кадраИдентификатор кодека : V_MPEG4/ISO/AVCПродолжительность : 1 ч. 30 м.Ширина : 1276 пикселейВысота : 720 пикселейСоотношение сторон : 16:9Режим частоты кадров : ПостоянныйЧастота кадров : 23,976 кадра/секЦветовое пространство : YUVСубдискретизация насыщенности : 4:2:0Битовая глубина : 8 битТип развёртки : ПрогрессивнаяЗаголовок : by SUPERBADЯзык : EnglishDefault : ДаForced : НетОсновные цвета : BT.709Характеристики трансфера : BT.709Коэффициенты матрицы : BT.709
Аудио #1Идентификатор : 2Формат : AC-3Формат/Информация : Audio Coding 3Расширение режима : CM (complete main)Параметр Endianness формата : BigИдентификатор кодека : A_AC3Продолжительность : 1 ч. 30 м.Вид битрейта : ПостоянныйБитрейт : 192 Кбит/секКаналы : 2 каналаРасположение каналов : Front: L RЧастота : 48,0 КГцБитовая глубина : 16 битМетод сжатия : С потерямиРазмер потока : 124 Мбайт (4%)Заголовок : DUBЯзык : RussianDefault : ДаForced : Нет
Аудио #2Идентификатор : 3Формат : AC-3Формат/Информация : Audio Coding 3Расширение режима : CM (complete main)Параметр Endianness формата : BigИдентификатор кодека : A_AC3Продолжительность : 1 ч. 30 м.Вид битрейта : ПостоянныйБитрейт : 192 Кбит/секКаналы : 2 каналаРасположение каналов : Front: L RЧастота : 48,0 КГцБитовая глубина : 16 битМетод сжатия : С потерямиРазмер потока : 124 Мбайт (4%)Заголовок : MVOЯзык : RussianDefault : НетForced : Нет
Аудио #3Идентификатор : 4Формат : AACФормат/Информация : Advanced Audio CodecПрофиль формата : LCИдентификатор кодека : A_AACПродолжительность : 1 ч. 30 м.Каналы : 2 каналаРасположение каналов : Front: L RЧастота : 48,0 КГцМетод сжатия : С потерямиЗаголовок : OriginalЯзык : EnglishDefault : НетForced : Нет
Текст #1Идентификатор : 5Формат : UTF-8Идентификатор кодека : S_TEXT/UTF8Идентификатор кодека/Информация : UTF-8 Plain TextЗаголовок : RussianЯзык : RussianDefault : НетForced : Нет
Текст #2Идентификатор : 6Формат : UTF-8Идентификатор кодека : S_TEXT/UTF8Идентификатор кодека/Информация : UTF-8 Plain TextЗаголовок : English SDHЯзык : EnglishDefault : НетForced : Нет
Меню00:00:00.000 : en:Chapter 100:01:08.000 : en:Chapter 200:05:10.000 : en:Chapter 300:10:22.000 : en:Chapter 400:15:05.000 : en:Chapter 500:19:50.000 : en:Chapter 600:22:13.000 : en:Chapter 700:24:28.000 : en:Chapter 800:26:15.000 : en:Chapter 900:28:46.000 : en:Chapter 1000:33:32.000 : en:Chapter 1100:37:31.000 : en:Chapter 1200:42:03.000 : en:Chapter 1300:47:06.000 : en:Chapter 1400:50:12.000 : en:Chapter 1500:54:33.000 : en:Chapter 1600:57:30.000 : en:Chapter 1701:01:45.000 : en:Chapter 1801:05:06.000 : en:Chapter 1901:08:03.000 : en:Chapter 2001:11:18.000 : en:Chapter 2101:16:46.000 : en:Chapter 2201:22:45.000 : en:Chapter 2301:26:17.000 : en:Chapter 2401:28:49.000 : en:Chapter 25

Скриншоты




Показать сообщения:    

Текущее время: 15-Дек 00:56

Часовой пояс: UTC ± 0


Вы не можете начинать темы
Вы не можете отвечать на сообщения
Вы не можете редактировать свои сообщения
Вы не можете удалять свои сообщения
Вы не можете голосовать в опросах
Вы не можете прикреплять файлы к сообщениям
Вы не можете скачивать файлы

!ВНИМАНИЕ!
Сайт не предоставляет электронные версии произведений, а занимается лишь коллекционированием и каталогизацией ссылок, присылаемых и публикуемых на форуме нашими читателями. Если вы являетесь правообладателем какого-либо представленного материала и не желаете, чтобы ссылка на него находилась в нашем каталоге, свяжитесь с нами, и мы незамедлительно удалим ее. Файлы для обмена на трекере предоставлены пользователями сайта, и администрация не несет ответственности за их содержание. Просьба не заливать файлы, защищенные авторскими правами, а также файлы нелегального содержания!