Флинстоуны: борцы каменного века / The Flintstones & WWE: Stone Age Smackdown (Спайк Брандт / Spike Brandt, Тони Червоне / Tony Cervone) [2015, мультфильм, комедия, приключения, семейный, BDRemux 1080p] DVO + ENG + SUB (eng) :: Ивановский Торрент трекер
Важное объявление!
У Нас Все раздачи мультитрекерные, при нуле пиров в релизах, можете смело вставать на закачку!
Статистика раздачи
Размер:     |    Зарегистрирован:     |    Скачан:     |   
Нет
 
     
 
 
Автор Сообщение

HUNTER

Стаж:
4 года 11 месяцев
Сообщений:
66098

Репутация: 101

[+] [-]
Вне форума [Профиль] [ЛС]

Флинстоуны: борцы каменного века
The Flintstones & WWE: Stone Age Smackdown
Год выпуска: 2015
Страна: США
Жанр: мультфильм, комедия, приключения, семейный
Продолжительность: 00:51:42
Перевод: Профессиональный (Двухголосый закадровый)
русские субтитры: отсутствуют-Режиссёр: Спайк Брандт : Spike Brandt, Тони Червоне : Tony Cervone-Роли озвучивали: Джон Сина, Грэй Гриффин, Кевин Майкл Ричардсон, Николь Гарсиа, Марк Колэуэй, Тресс МакНилл, СМ Панк, Расси Тейлор, Брианна Гарсиа, Винс МакМахон-Описание: Остроумный полнометражный мультфильм о приключениях любимцев нескольких поколений, знаменитой на весь мир семейки Флинстоунов. На этот раз глава семейства отправляется на ринг, чтобы продемонстрировать всю мощь первобытного человека.
Действие, по традиции, происходит в родном городке Флинстоунов, Бедроке. В одно прекрасное утро Фред просыпается в постели с любимой женой и мыслями о том, что было бы неплохо попросить у начальства повышения, а заодно позаботиться о семейном отпуске. Преисполненный надежд, Фред отправляется на стройку, но череда нелепых случайностей приводит к тому, что вместо долгожданной прибавки Флинстоун получает… ничего. Расстроенный Фред решает честно признаться Вильме, что отпуска не будет, но когда видит, что она уже приготовилась к поездке и даже купила эффектный купальник, то понимает, что просто не имеет права подводить семью. Теперь Фред должен заработать на отпуск, чего бы это ему ни стоило. И он находит весьма оригинальный выход из ситуации.- релиз: -- Работа со звуком xfiles
- Работа с BDRemux'ом -Azureus--Качество: BDRemux 1080p
Формат: MKV
Видео кодек: AVC
Аудио кодек: AC3 : DTS MA
Видео: 1920x1080 , 23,976 fps, ~18,1 Мbps avg, 0.364 bit/pixel
Аудио #1: [RUS] 48 kHz, AC3 Dolby Digital, 2/0 (L,R) ch, ~192 kbps kbps avg
Аудио #2: [ENG] DTS-HD MA 5.1 / 48 kHz / 3891 kbps / 24-bit (DTS Core: 5.1 / 48 kHz / 1509 kbps / 24-bit)
субтитры: английские
навигация по главам: 6 глав (не именных)

MediaInfo

Общее
Уникальный идентификатор : 211350434680793115388912132905170151123 (0x9F009CF389CF1D01B62DDB14970CA6D3)
Полное имя : D:\Im\Flintstones\The Flintstones & WWE Stone Age Smackdown.2015.BDRemux 1080p.mkv
Формат : Matroska
Версия формата : Version 4 / Version 2
Размер файла : 7,32 Гбайт
Продолжительность : 51 м.
Режим общего битрейта : Переменный
Общий поток : 20,3 Мбит/сек
Название фильма : The Flintstones & WWE: Stone Age Smackdown.2015.BDRemux 1080p -Azureus-
Дата кодирования : UTC 2015-03-14 19:48:54
Программа кодирования : mkvmerge v7.5.0 ('Glass Culture') 32bit built on Jan 4 2015 16:37:25
Библиотека кодирования : libebml v1.3.1 + libmatroska v1.4.2
DURATION : 00:51:19.826000000
NUMBER_OF_FRAMES : 807
NUMBER_OF_BYTES : 24933
_STATISTICS_WRITING_APP : mkvmerge v7.5.0 ('Glass Culture') 32bit built on Jan 4 2015 16:37:25
_STATISTICS_WRITING_DATE_UTC : 2015-03-14 19:48:54
_STATISTICS_TAGS : BPS DURATION NUMBER_OF_FRAMES NUMBER_OF_BYTES
Видео
Идентификатор : 1
Формат : AVC
Формат/Информация : Advanced Video Codec
Профиль формата : High@L4.1
Параметр CABAC формата : Да
Параметр ReFrames формата : 2 кадра
Параметр GOP формата : M=1, N=10
Идентификатор кодека : V_MPEG4/ISO/AVC
Продолжительность : 51 м.
Вид битрейта : Переменный
Битрейт : 18,1 Мбит/сек
Ширина : 1920 пикселей
Высота : 1080 пикселей
Соотношение сторон : 16:9
Частота кадров : 23,976 кадра/сек
Цветовое пространство : YUV
Субдискретизация насыщенности : 4:2:0
Битовая глубина : 8 бит
Тип развёртки : Прогрессивная
Бит/(Пиксели*Кадры) : 0.364
Размер потока : 6,54 Гбайт (89%)
Язык : English
Default : Да
Forced : Нет
Аудио #1
Идентификатор : 2
Формат : AC-3
Формат/Информация : Audio Coding 3
Расширение режима : CM (complete main)
Идентификатор кодека : A_AC3
Продолжительность : 51 м.
Вид битрейта : Постоянный
Битрейт : 192 Кбит/сек
Каналы : 2 канала
Расположение каналов : Front: L R
Частота : 48,0 КГц
Битовая глубина : 16 бит
Метод сжатия : С потерями
Размер потока : 71,0 Мбайт (1%)
Заголовок : DVO
Язык : Russian
Default : Да
Forced : Нет
Аудио #2
Идентификатор : 3
Формат : DTS
Формат/Информация : Digital Theater Systems
Профиль формата : MA / Core
Идентификатор кодека : A_DTS
Продолжительность : 51 м.
Вид битрейта : Переменный
Битрейт : 1561 Кбит/сек / 1510 Кбит/сек
Каналы : 6 каналов
Расположение каналов : Front: L C R, Side: L R, LFE
Частота : 48,0 КГц
Битовая глубина : 24 бит
Метод сжатия : Без потерь / Lossy
Заголовок : ENG
Язык : English
Default : Нет
Forced : Нет
Текст #1
Идентификатор : 4
Формат : UTF-8
Идентификатор кодека : S_TEXT/UTF8
Идентификатор кодека/Информация : UTF-8 Plain Text
Заголовок : Eng Sub - full
Язык : English
Default : Нет
Forced : Нет
Текст #2
Идентификатор : 5
Формат : UTF-8
Идентификатор кодека : S_TEXT/UTF8
Идентификатор кодека/Информация : UTF-8 Plain Text
Заголовок : Eng Sub - SDH
Язык : English
Default : Нет
Forced : Нет
Меню
00:00:00.000 : en:00:00:00.000
00:09:05.211 : en:00:09:05.211
00:19:20.493 : en:00:19:20.493
00:32:55.765 : en:00:32:55.765
00:41:41.124 : en:00:41:41.124
00:49:01.188 : en:00:49:01.188
____________________________________________
Стою на раздаче до 5 дней.
Просьба скачавшим как можно дольше не покидать раздачу!
ВСЕМ ПРИЯТНОГО ПРОСМОТРА!_________________________________________

_________________
Показать сообщения:    

Текущее время: Сегодня 14:16

Часовой пояс: GMT



Вы не можете начинать темы
Вы не можете отвечать на сообщения
Вы не можете редактировать свои сообщения
Вы не можете удалять свои сообщения
Вы не можете голосовать в опросах
Вы не можете прикреплять файлы к сообщениям
Вы не можете скачивать файлы