Важное объявление!
У Нас Все раздачи мультитрекерные, при нуле пиров в релизах, можете смело вставать на закачку!
 
Автор Сообщение

HUNTER

Стаж:
4 года 8 месяцев
Сообщений:
62020

Репутация: 101

[+] [-]
Вне форума [Профиль] [ЛС]

Финес и Ферб: Ночь живых аптекарей / Phineas and Ferb: Night of The Living Pharmacists
Страна: США
Жанр: Мультипликация
Продолжительность: 00:44:36
Год выпуска: 2014
Перевод: Профессиональный (дублированный) Невафильм
Русские субтитры: нет-Режиссёр: Сью Перротто, Роберт Эф Хьюз. / Sue Perrotto, Robert F. Hughes
Описание: на этот раз злодей Фуфелшмерц заходит слишком далеко! Под покровом ночи городок наводняют зомби, похожие на коварного доктора, как две капли воды. Каждый, кто прикасается к монстру в аптекарском халате, моментально превращается в его клона! Бесстрашные братья Финес и Ферб, агент Пи и их друзья должны немедленно вмешаться, пока еще не все мирные жители потеряли человеческий облик...-Релиз от - -Качество: WEB-DL 1080p
Формат: MKV
Видео: AVC, 1920x1080 (16:9), 23.976 fps, 5 165 Kbps (0.104 bit/pixel)
Аудио 1: AC-3, 48.0 KHz, 2 ch, 192 Kbps, CBR (Russian)
Аудио 2: AC-3, 48.0 KHz, 2 ch, 192 Kbps, CBR (English)
Субтитры: English
Семпл: Забираем тут
Ссылка на предыдущие и альтернативные раздачи: Тут

Подробные технические данные

ОбщееУникальный идентификатор : 192198650816835925661500998904003049000 (0x90981D1AA667D059952B81680A4A3628)Полное имя : F:\Phineas and Ferb - Night of the Living Pharmacists Web-DL 1080p.mkvФормат : MatroskaВерсия формата : Version 4 / Version 2Размер файла : 1,76 ГбайтПродолжительность : 44 м.Общий поток : 5662 Кбит/секДата кодирования : UTC 2014-11-04 11:01:56Программа кодирования : mkvmerge v7.3.0 ('Nouages') 32bit built on Oct 22 2014 18:44:01Библиотека кодирования : libebml v1.3.0 + libmatroska v1.4.1DURATION : 00:44:36.128000000NUMBER_OF_FRAMES : 83629NUMBER_OF_BYTES : 64227072_STATISTICS_WRITING_APP : mkvmerge v7.3.0 ('Nouages') 32bit built on Oct 22 2014 18:44:01_STATISTICS_WRITING_DATE_UTC : 2014-11-04 11:01:56_STATISTICS_TAGS : BPS DURATION NUMBER_OF_FRAMES NUMBER_OF_BYTES
ВидеоИдентификатор : 1Формат : AVCФормат/Информация : Advanced Video CodecПрофиль формата : High@L4.0Параметр CABAC формата : ДаПараметр ReFrames формата : 4 кадраИдентификатор кодека : V_MPEG4/ISO/AVCПродолжительность : 44 м.Битрейт : 5165 Кбит/секШирина : 1920 пикселейВысота : 1080 пикселейСоотношение сторон : 16:9Режим частоты кадров : ПостоянныйЧастота кадров : 23,976 кадра/секЦветовое пространство : YUVСубдискретизация насыщенности : 4:2:0Битовая глубина : 8 битТип развёртки : ПрогрессивнаяБит/(Пиксели*Кадры) : 0.104Размер потока : 1,61 Гбайт (91%)Язык : EnglishDefault : ДаForced : ДаОсновные цвета : BT.709Характеристики трансфера : BT.709Коэффициенты матрицы : BT.709
Аудио #1Идентификатор : 2Формат : AC-3Формат/Информация : Audio Coding 3Расширение режима : CM (complete main)Параметр Endianness формата : BigИдентификатор кодека : A_AC3Продолжительность : 44 м.Вид битрейта : ПостоянныйБитрейт : 192 Кбит/секКаналы : 2 каналаРасположение каналов : Front: L RЧастота : 48,0 КГцБитовая глубина : 16 битМетод сжатия : С потерямиРазмер потока : 61,3 Мбайт (3%)Язык : RussianDefault : ДаForced : Нет
Аудио #2Идентификатор : 3Формат : AC-3Формат/Информация : Audio Coding 3Расширение режима : CM (complete main)Параметр Endianness формата : BigИдентификатор кодека : A_AC3Продолжительность : 44 м.Вид битрейта : ПостоянныйБитрейт : 192 Кбит/секКаналы : 2 каналаРасположение каналов : Front: L RЧастота : 48,0 КГцБитовая глубина : 16 битМетод сжатия : С потерямиРазмер потока : 61,3 Мбайт (3%)Язык : EnglishDefault : НетForced : Нет
ТекстИдентификатор : 4Формат : UTF-8Идентификатор кодека : S_TEXT/UTF8Идентификатор кодека/Информация : UTF-8 Plain TextЯзык : EnglishDefault : НетForced : Нет

Скриншоты



_________________
Показать сообщения:    

Текущее время: Сегодня 14:45

Часовой пояс: GMT



Вы не можете начинать темы
Вы не можете отвечать на сообщения
Вы не можете редактировать свои сообщения
Вы не можете удалять свои сообщения
Вы не можете голосовать в опросах
Вы не можете прикреплять файлы к сообщениям
Вы не можете скачивать файлы
Наши партнеры: интернет магазин Ивановского трикотажа textilla.ru