Важное объявление!
У Нас Все раздачи мультитрекерные, при нуле пиров в релизах, можете смело вставать на закачку!
Статистика раздачи
Размер:     |    Зарегистрирован:     |    Скачан:     |   
Нет
 
     
 
 
Автор Сообщение

HUNTER

Стаж:
5 лет
Сообщений:
68414

Репутация: 101

[+] [-]
Вне форума [Профиль] [ЛС]

-Финансовый монстр | Money Monster--
Год выпуска: 2016
Страна: США
Студия: Allegiance Theater
Жанр: триллер, драма, криминал
Продолжительность: 01:38:39-Перевод: Профессиональный (дублированный) | Лицензия
Cубтитры: Русские, английские
Оригинальная аудиодорожка: английский-Режиссёр: Джоди Фостер / Jodie Foster-В ролях: Джордж Клуни, Джулия Робертс, Джек О`Коннелл, Доминик Уэст, Катрина Балф, Джанкарло Эспозито, Кристофер Денэм, Ленни Венито, Кристофер Бауэр, Дэннис Буцикарис-Описание: Во время трансляции рейтингового реалити-шоу «Финансовый монстр» в студию врывается неизвестный и берет ведущего в заложники. Несмотря на чрезвычайную ситуацию, программа не прерывается – ведь шоу должно продолжаться! Постепенно то, что начиналось как мрачная драма, превращается в самый успешный и скандальный выпуск реалити-шоу за всю его историю.- -Качество: BDRip 1080p
Формат: MKV
Видео: x264, ~ 8555 kbps, 1920x804 (2,40:1), 23,976 fps
Аудио 1: AC3, 48,0 КГц, 6 ch, 640 kbps - Rus
Аудио 2: DTS, 48,0 КГц, 6 ch, 1509 kbps- Eng
Субтитры: Русские (forced, full), английские (full, SDH)-

MediaInfo

Код:
Общее
Уникальный идентификатор                 : 192891583688127029050786432982159674024 (0x911D9155156C845D9A8F9CFA75EF4AA8)
Полное имя                               : D:\загрузки\Denegniy.Monstr.2O16.D.BDRip.1O8OP.mkv
Формат                                   : Matroska
Версия формата                           : Version 2
Размер файла                             : 7,49 Гбайт
Продолжительность                        : 1 ч. 38 м.
Общий поток                              : 10,9 Мбит/сек
Дата кодирования                         : UTC 2016-09-06 21:16:56
Программа кодирования                    : mkvmerge v7.8.0 ('River Man') 32bit built on Apr  3 2015 12:11:22
Библиотека кодирования                   : libebml v1.3.1 + libmatroska v1.4.2
Видео
Идентификатор                            : 1
Формат                                   : AVC
Формат/Информация                        : Advanced Video Codec
Профиль формата                          : High@L4.1
Параметр CABAC формата                   : Да
Параметр ReFrames формата                : 5 кадров
Идентификатор кодека                     : V_MPEG4/ISO/AVC
Продолжительность                        : 1 ч. 38 м.
Битрейт                                  : 8505 Кбит/сек
Ширина                                   : 1920 пикселей
Высота                                   : 804 пикселя
Соотношение сторон                       : 2,40:1
Режим частоты кадров                     : Постоянный
Частота кадров                           : 23,976 кадра/сек
Цветовое пространство                    : YUV
Субдискретизация насыщенности            : 4:2:0
Битовая глубина                          : 8 бит
Тип развёртки                            : Прогрессивная
Бит/(Пиксели*Кадры)                      : 0.230
Размер потока                            : 5,86 Гбайт (78%)
Библиотека кодирования                   : x264 core 148 r2705 3f5ed56
Настройки программы                      : cabac=1 / ref=5 / deblock=1:-3:-3 / analyse=0x3:0x133 / me=umh / subme=10 / psy=1 / psy_rd=1.00:0.00 / mixed_ref=1 / me_range=32 / chroma_me=1 / trellis=2 / 8x8dct=1 / cqm=0 / deadzone=21,11 / fast_pskip=0 / chroma_qp_offset=-2 / threads=8 / lookahead_threads=1 / sliced_threads=0 / nr=0 / decimate=0 / interlaced=0 / bluray_compat=0 / constrained_intra=0 / bframes=8 / b_pyramid=2 / b_adapt=2 / b_bias=0 / direct=3 / weightb=1 / open_gop=0 / weightp=2 / keyint=250 / keyint_min=23 / scenecut=40 / intra_refresh=0 / rc_lookahead=150 / rc=crf / mbtree=0 / crf=16.4 / qcomp=0.60 / qpmin=0 / qpmax=69 / qpstep=4 / vbv_maxrate=62500 / vbv_bufsize=78125 / crf_max=0.0 / nal_hrd=none / filler=0 / ip_ratio=1.30 / pb_ratio=1.20 / aq=3:0.80
Язык                                     : English
Default                                  : Да
Forced                                   : Нет
Коэффициенты матрицы                     : BT.709
Аудио #1
Идентификатор                            : 2
Формат                                   : AC-3
Формат/Информация                        : Audio Coding 3
Расширение режима                        : CM (complete main)
Параметр Endianness формата              : Big
Идентификатор кодека                     : A_AC3
Продолжительность                        : 1 ч. 38 м.
Вид битрейта                             : Постоянный
Битрейт                                  : 640 Кбит/сек
Каналы                                   : 6 каналов
Расположение каналов                     : Front: L C R, Side: L R, LFE
Частота                                  : 48,0 КГц
Битовая глубина                          : 16 бит
Метод сжатия                             : С потерями
Размер потока                            : 452 Мбайт (6%)
Заголовок                                : Blu-Ray CEE
Язык                                     : Russian
Default                                  : Да
Forced                                   : Нет
Аудио #2
Идентификатор                            : 3
Формат                                   : DTS
Формат/Информация                        : Digital Theater Systems
Режим                                    : 16
Параметр Endianness формата              : Big
Идентификатор кодека                     : A_DTS
Продолжительность                        : 1 ч. 38 м.
Вид битрейта                             : Постоянный
Битрейт                                  : 1509 Кбит/сек
Каналы                                   : 6 каналов
Расположение каналов                     : Front: L C R, Side: L R, LFE
Частота                                  : 48,0 КГц
Битовая глубина                          : 24 бит
Метод сжатия                             : С потерями
Размер потока                            : 1,04 Гбайт (14%)
Заголовок                                : Original
Язык                                     : English
Default                                  : Нет
Forced                                   : Нет
Текст #1
Идентификатор                            : 4
Формат                                   : UTF-8
Идентификатор кодека                     : S_TEXT/UTF8
Идентификатор кодека/Информация          : UTF-8 Plain Text
Заголовок                                : Forced
Язык                                     : Russian
Default                                  : Да
Forced                                   : Нет
Текст #2
Идентификатор                            : 5
Формат                                   : UTF-8
Идентификатор кодека                     : S_TEXT/UTF8
Идентификатор кодека/Информация          : UTF-8 Plain Text
Заголовок                                : Full
Язык                                     : Russian
Default                                  : Нет
Forced                                   : Нет
Текст #3
Идентификатор                            : 6
Формат                                   : UTF-8
Идентификатор кодека                     : S_TEXT/UTF8
Идентификатор кодека/Информация          : UTF-8 Plain Text
Заголовок                                : Full
Язык                                     : English
Default                                  : Нет
Forced                                   : Нет
Текст #4
Идентификатор                            : 7
Формат                                   : UTF-8
Идентификатор кодека                     : S_TEXT/UTF8
Идентификатор кодека/Информация          : UTF-8 Plain Text
Заголовок                                : SDH
Язык                                     : English
Default                                  : Нет
Forced                                   : Нет
Меню
00:00:00.000                             : en:Chapter 1
00:07:14.225                             : en:Chapter 2
00:12:38.800                             : en:Chapter 3
00:20:08.457                             : en:Chapter 4
00:24:32.179                             : en:Chapter 5
00:31:37.854                             : en:Chapter 6
00:39:52.140                             : en:Chapter 7
00:45:29.101                             : en:Chapter 8
00:51:37.511                             : en:Chapter 9
00:55:39.628                             : en:Chapter 10
00:58:43.019                             : en:Chapter 11
01:06:42.207                             : en:Chapter 12
01:10:27.682                             : en:Chapter 13
01:16:06.228                             : en:Chapter 14
01:19:55.165                             : en:Chapter 15
01:29:35.036                             : en:Chapter 16

Скриншоты


_________________
Показать сообщения:    

Текущее время: Сегодня 21:30

Часовой пояс: GMT



Вы не можете начинать темы
Вы не можете отвечать на сообщения
Вы не можете редактировать свои сообщения
Вы не можете удалять свои сообщения
Вы не можете голосовать в опросах
Вы не можете прикреплять файлы к сообщениям
Вы не можете скачивать файлы