Важное объявление!
У Нас Все раздачи мультитрекерные, при нуле пиров в релизах, можете смело вставать на закачку!
 
Автор Сообщение

HUNTER

Стаж:
4 года 9 месяцев
Сообщений:
65021

Репутация: 101

[+] [-]
Вне форума [Профиль] [ЛС]

Фильм любви и анархии, или Сегодня в десять утра на Виа деи Фьори в известном доме терпимо / Film d'amore e d'anarchia, ovvero 'stamattina alle 10 in via dei Fiori nella nota casa di tolleranza...'
Страна: Италия
Студия: Euro International Film
Жанр: Драма, мелодрама, комедия
Год выпуска: 1973
Продолжительность: 02:05:50
Перевод: Одноголосый закадровый
Cубтитры: английские
Оригинальная аудиодорожка: итальянский
Режиссер: Лина Вертмюллер / Lina Wertmuller
В ролях: Джанкарло Джаннини, Марианджела Мелато, Эрос Паньи, Пина Чеи, Елена Фьоре, Джулиана Каландра, Иза Беллини, Иза Даниэли, Энрика Бонаккорти, Анна Бонаюто
Описание: В публичный дом в Риме из Парижа приезжает анархист с детскими, испуганными глазами, всклокоченной головой и с множеством веснушек. Он приезжает к связной Саломее, которая работает там по специальности. Она должна помочь ему с убийством Бенито Муссолини и выдает его за своего кузена. Робкий парень в первый раз оказался в публичном доме...
Сэмпл: http://multi-up.com/945100
Тип релиза: BDRip 1080p
Контейнер: MKV
Видео: x264, 1918x1038, 24 fps, ~13753 kbps
Аудио #1: Russian: AC3 1.0, 192.00 kbps avg |Одноголосый закадровый|
Аудио #2: Italian: DTS 1.0, 768 kbps avg |Оригинал|
Формат субтитров: prerendered (DVD/IDX+SUB)

MediaInfo

General
Unique ID : 212675939308546867837427002487783513332 (0x9FFFE56006D655CEB4ECADF2965F5CF4)
Format : Matroska
Format version : Version 4 / Version 2
File size : 12.9 GiB
Duration : 2h 5mn
Overall bit rate : 14.7 Mbps
Encoded date : UTC 2013-12-23 21:34:03
Writing application : mkvmerge v6.6.0 ('The Edge Of The In Between') built on Dec 1 2013 17:55:00
Writing library : libebml v1.3.0 + libmatroska v1.4.1
Video
ID : 1
Format : AVC
Format/Info : Advanced Video Codec
Format profile : High@L4.1
Format settings, CABAC : Yes
Format settings, ReFrames : 4 frames
Codec ID : V_MPEG4/ISO/AVC
Duration : 2h 5mn
Bit rate : 13.8 Mbps
Width : 1 918 pixels
Height : 1 038 pixels
Display aspect ratio : 1.85:1
Frame rate mode : Constant
Frame rate : 24.000 fps
Color space : YUV
Chroma subsampling : 4:2:0
Bit depth : 8 bits
Scan type : Progressive
Bits/(Pixel*Frame) : 0.288
Stream size : 11.8 GiB (91%)
Writing library : x264 core 133 r2334 a3ac64b
Encoding settings : cabac=1 / ref=4 / deblock=1:-2:-1 / analyse=0x3:0x113 / me=umh / subme=9 / psy=0 / mixed_ref=1 / me_range=48 / chroma_me=1 / trellis=0 / 8x8dct=1 / cqm=0 / deadzone=21,11 / fast_pskip=1 / chroma_qp_offset=0 / threads=3 / lookahead_threads=1 / sliced_threads=0 / nr=0 / decimate=1 / interlaced=0 / bluray_compat=0 / constrained_intra=0 / bframes=12 / b_pyramid=2 / b_adapt=2 / b_bias=0 / direct=1 / weightb=1 / open_gop=0 / weightp=2 / keyint=250 / keyint_min=24 / scenecut=40 / intra_refresh=0 / rc=2pass / mbtree=0 / bitrate=13753 / ratetol=1.0 / qcomp=0.60 / qpmin=0 / qpmax=69 / qpstep=4 / cplxblur=20.0 / qblur=0.5 / ip_ratio=1.40 / pb_ratio=1.30 / aq=1:1.00
Default : Yes
Forced : No
Audio #1
ID : 2
Format : AC-3
Format/Info : Audio Coding 3
Mode extension : CM (complete main)
Format settings, Endianness : Big
Codec ID : A_AC3
Duration : 2h 5mn
Bit rate mode : Constant
Bit rate : 192 Kbps
Channel(s) : 1 channel
Channel positions : Front: C
Sampling rate : 48.0 KHz
Bit depth : 16 bits
Compression mode : Lossy
Stream size : 173 MiB (1%)
Language : Russian
Default : Yes
Forced : No
Audio #2
ID : 3
Format : DTS
Format/Info : Digital Theater Systems
Mode : 16
Format settings, Endianness : Big
Codec ID : A_DTS
Duration : 2h 5mn
Bit rate mode : Constant
Bit rate : 768 Kbps
Channel(s) : 1 channel
Channel positions : Front: C
Sampling rate : 48.0 KHz
Bit depth : 16 bits
Compression mode : Lossy
Stream size : 691 MiB (5%)
Language : Italian
Default : No
Forced : No
Text
ID : 4
Format : VobSub
Muxing mode : zlib
Codec ID : S_VOBSUB
Codec ID/Info : The same subtitle format used on DVDs
Language : English
Default : No
Forced : No
Menu
00:00:00.000 : en:00:00:00.000
00:10:15.208 : en:00:10:15.208
00:18:49.833 : en:00:18:49.833
00:28:33.333 : en:00:28:33.333
00:40:36.583 : en:00:40:36.583
00:52:00.791 : en:00:52:00.791
01:02:49.958 : en:01:02:49.958
01:12:57.916 : en:01:12:57.916
01:20:28.125 : en:01:20:28.125
01:32:42.208 : en:01:32:42.208
01:43:58.958 : en:01:43:58.958
01:54:38.750 : en:01:54:38.750

Скриншоты



_________________
Показать сообщения:    

Текущее время: Сегодня 19:47

Часовой пояс: GMT



Вы не можете начинать темы
Вы не можете отвечать на сообщения
Вы не можете редактировать свои сообщения
Вы не можете удалять свои сообщения
Вы не можете голосовать в опросах
Вы не можете прикреплять файлы к сообщениям
Вы не можете скачивать файлы