Ивановский Торрент трекер
Яндекс.Погода
 

[Цитировать]
HUNTER

Ферма во времена Тюдоров. / BBC Tudor Monastery Farm
Год выпуска: 2013
Страна: Великобритания
Жанр: документальный сериал
Продолжительность: 00:59:00
Перевод: Студийный (одноголосый закадровый)
Режиссер: Stuart Elliott / Стюарт Эллиотт
Описание: Если вы хотите узнать все о духовном мире средневековой Англии, то вам стоит отправиться в монастырь. Историки Рут Гудман и Питер Джин вместе с археологом Томом Пинфолдом возьмут на себя роли обычных мирян, которые в Средние века выполняли всю основную работу на ферме, принадлежащей монастырю. Несмотря на то, что главной функцией монастыря было молиться и заботиться о духовном здравии всех христиан, живых или мертвых, монастыри в Средние века также владели большим числом земель, что позволяло им занимать важнейшие позиции в фермерском хозяйстве.
Доп. информация: http://www.bbc.co.uk/programmes/p01k3b96/episodes/guide
Сэмпл: http://multi-up.com/943829
качество: HDTVRip
формат: AVI
Видео: Xvid 720x400 25fps ~1500 Kbps
Аудио: MP3 48000Hz 128kbps 2 channels-2006, BBC, Рут Гудман и Co, "Рождественский пир эпохи Тюдоров" [59мин] TV-rip
2009, BBC, Рут Гудман и Co, "Викторианская ферма" [6x58мин] DVD-rip.
2009, BBC, Рут Гудман и Co, "Викторианская ферма. Рождество" [3x59мин] SAT-rip
2010, BBC, Рут Гудман и Co, "Викторианская аптека" [4x60мин] DVD-rip
2011, BBC, Рут Гудман и Co, "Эдвардианская ферма" [12x60мин] DVD-rip
2012, BBC, Рут Гудман и Co, "Ферма в годы войны" [8х59мин] DVDRip-

Список выпусков/серий

В первой серии нашим фермерам предстоит научиться разжигать огонь при помощи кремня, готовить еду из истощенного урожая во время сильного голода, а также наливать воду из колодца.

MediaInfo

General
Complete name : C:\Videos\BBC Tudor Monastery Farm\BBC.Tudor.Monastery.Farm.1of6.avi
Format : AVI
Format/Info : Audio Video Interleave
File size : 691 MiB
Duration : 59mn 0s
Overall bit rate : 1 638 Kbps
Writing application : VirtualDubMod 1.5.10.3 | www.virtualdub-fr.org || (build 2550/release)
Writing library : VirtualDubMod build 2550/release
Video
ID : 0
Format : MPEG-4 Visual
Format profile : Advanced Simple@L5
Format settings, BVOP : 2
Format settings, QPel : No
Format settings, GMC : No warppoints
Format settings, Matrix : Default (MPEG)
Codec ID : XVID
Codec ID/Hint : XviD
Duration : 59mn 0s
Bit rate : 1 500 Kbps
Width : 720 pixels
Height : 400 pixels
Display aspect ratio : 16:9
Frame rate : 25.000 fps
Color space : YUV
Chroma subsampling : 4:2:0
Bit depth : 8 bits
Scan type : Progressive
Compression mode : Lossy
Bits/(Pixel*Frame) : 0.208
Stream size : 633 MiB (92%)
Writing library : XviD 1.2.1 (UTC 2008-12-04)
Audio
ID : 1
Format : MPEG Audio
Format version : Version 1
Format profile : Layer 3
Codec ID : 55
Codec ID/Hint : MP3
Duration : 59mn 0s
Bit rate mode : Constant
Bit rate : 128 Kbps
Channel count : 2 channels
Sampling rate : 48.0 KHz
Compression mode : Lossy
Stream size : 54.0 MiB (8%)
Alignment : Aligned on interleaves
Interleave, duration : 40 ms (1.00 video frame)
Interleave, preload duration : 504 ms
Writing library : LAME3.99r
Encoding settings : -m s -V 4 -q 0 -lowpass 17 -b 128

Скриншоты

Показать сообщения:    

Текущее время: 24-Сен 18:38

Часовой пояс: UTC - 1


Вы не можете начинать темы
Вы не можете отвечать на сообщения
Вы не можете редактировать свои сообщения
Вы не можете удалять свои сообщения
Вы не можете голосовать в опросах
Вы не можете прикреплять файлы к сообщениям
Вы не можете скачивать файлы

!ВНИМАНИЕ!
Сайт не предоставляет электронные версии произведений, а занимается лишь коллекционированием и каталогизацией ссылок, присылаемых и публикуемых на форуме нашими читателями. Если вы являетесь правообладателем какого-либо представленного материала и не желаете, чтобы ссылка на него находилась в нашем каталоге, свяжитесь с нами, и мы незамедлительно удалим ее. Файлы для обмена на трекере предоставлены пользователями сайта, и администрация не несет ответственности за их содержание. Просьба не заливать файлы, защищенные авторскими правами, а также файлы нелегального содержания!