Феи / Tinker Bell (Брэдли Рэймонд / Bradley Raymond) [2008, фэнтези, приключения, семейный, BDRip-AVC] Dub Rus + Dub Ukr + Rus, Ukr, Eng Sub + Original Eng :: Ивановский Торрент трекер
Важное объявление!
У Нас Все раздачи мультитрекерные, при нуле пиров в релизах, можете смело вставать на закачку!
Статистика раздачи
Размер:     |    Зарегистрирован:     |    Скачан:     |   
Нет
 
     
 
 
Автор Сообщение

HUNTER

Стаж:
4 года 11 месяцев
Сообщений:
66112

Репутация: 101

[+] [-]
Вне форума [Профиль] [ЛС]


Феи | Tinker Bell
«Добро пожаловать в долину фей»
-
Страна: США [DisneyToon Studios]
Жанр: фэнтези, приключения, семейный
Продолжительность: 01:17:58
Год выпуска: 2008
Перевод: Профессиональный (дублированный) Rus
Перевод 2: Профессиональный (дублированный) Ukr
Русские субтитры: есть
Режиссёр: Брэдли Рэймонд / Bradley Raymond
Роли озвучивали: Мэй Уитман, Кристин Ченоуэт, Рэйвен, Люси Лью, Америка Феррера, Джейн Хоррокс, Джесси МакКартни, Джефф Беннетт, Роб Полсен, Памела Адлон-ОписаниеДобро пожаловать в волшебный мир, населенный очаровательными обитательницами Долины Фей. Это чудесное место, наполненное мифами, магией и волшебством. Долина Фей — это целое королевство, каждый житель которого обладает своим, необыкновенным талантам, а все вместе феи выполняют очень важную работу — они заботятся о природе и помогают временам года сменять друг друга: помогают листьям менять цвет, солнечным лучам — растапливать снег, зверям, оставшимся на зимнюю спячку — выбираться из своих нор и берлог.
Фея Динь-Динь считает, что ее талант по починке кастрюль и чайников, не так важен, как умения других фей. Но когда Динь-Динь решает заняться чем-то другим, из этого не получается ничего, кроме всеобщего замешательства! С помощью своих подруг она понимает, что главное в жизни — быть честной с самой собой, и тогда-то и родится подлинная магия.
-
«Феи» (Tinker Bell) — полнометражный компьютерный мультфильм 2008 года, выпущенный компанией DisneyToon Studios основанный на Disney Fairies франшизе. Distributed by Walt Disney Studios
Сэмпл

IMDb: 6.90 (6592)
Качество: BDRip-AVC Blu-ray Disc 1080p
Формат: MKV
Видео: AVC 3323 Kbps 1152 x 648 (1.778) at 23.976 fps
Аудио: AC-3 384 Kbps 6 channels, 48.0 KHz Rus DUB
Аудио 2: AC-3 384 Kbps 6 channels, 48.0 KHz Ukr DUB
Аудио 3: AC-3 384 Kbps 6 channels, 48.0 KHz Eng
Субтитры: Rus, Ukr, Eng SRT

MI | Log

Log
x264 [info]: frame I:973 Avg QP:14.75 size:118066
x264 [info]: frame P:27183 Avg QP:16.60 size: 33125
x264 [info]: frame B:84004 Avg QP:19.80 size: 11660
x264 [info]: consecutive B-frames: 2.8% 6.5% 10.0% 27.3% 15.1% 27.9% 3.4% 2.0% 1.3% 1.1% 1.1% 0.8% 0.2% 0.2% 0.2%
x264 [info]: mb I I16..4: 6.5% 69.6% 24.0%
x264 [info]: mb P I16..4: 0.8% 12.8% 2.5% P16..4: 25.6% 24.9% 10.4% 2.2% 0.3% skip:20.4%
x264 [info]: mb B I16..4: 0.2% 1.8% 0.4% B16..8: 25.7% 16.4% 3.4% direct: 4.2% skip:47.9% L0:41.3% L1:43.5% BI:15.2%
x264 [info]: 8x8 transform intra:77.2% inter:54.2%
x264 [info]: direct mvs spatial:100.0% temporal:0.0%
x264 [info]: coded y,uvDC,uvAC intra: 90.4% 91.5% 76.1% inter: 16.5% 16.3% 5.8%
x264 [info]: i16 v,h,dc,p: 23% 7% 5% 65%
x264 [info]: i8 v,h,dc,ddl,ddr,vr,hd,vl,hu: 12% 9% 6% 9% 12% 13% 12% 13% 14%
x264 [info]: i4 v,h,dc,ddl,ddr,vr,hd,vl,hu: 12% 7% 6% 8% 17% 15% 13% 10% 12%
x264 [info]: i8c dc,h,v,p: 40% 22% 18% 20%
x264 [info]: Weighted P-Frames: Y:2.4% UV:1.6%
x264 [info]: ref P L0: 49.0% 8.4% 17.1% 7.8% 5.5% 3.4% 2.9% 1.6% 1.5% 1.3% 1.3% 0.2% 0.0%
x264 [info]: ref B L0: 72.6% 11.1% 6.0% 3.6% 2.1% 1.7% 1.3% 0.9% 0.5% 0.3%
x264 [info]: ref B L1: 92.6% 7.4%
x264 [info]: kb/s:3411.33
x264 [total]: encoded 112160 frames, 8.70 fps, 3411.33 kb/s, duration 3:34:56.80
Format                                   : MatroskaFormat version                           : Version 4 / Version 2File size                                : 2.49 GiBDuration                                 : 1h 17mnOverall bit rate                         : 4 566 KbpsEncoded date                             : UTC 2015-03-12 19:51:31Writing application                      : mkvmerge v6.7.0 ('Back to the Ground') 32bit built on Jan  8 2014 15:03:17Writing library                          : libebml v1.3.0 + libmatroska v1.4.1
VideoID : 1Format : AVCFormat/Info : Advanced Video CodecFormat profile : High@L4.1Format settings, CABAC : YesFormat settings, ReFrames : 11 framesCodec ID : V_MPEG4/ISO/AVCDuration : 1h 17mnBit rate : 3 323 KbpsWidth : 1 152 pixelsHeight : 648 pixelsDisplay aspect ratio : 16:9Frame rate mode : ConstantFrame rate : 23.976 fpsColor space : YUVChroma subsampling : 4:2:0Bit depth : 8 bitsScan type : ProgressiveBits/(Pixel*Frame) : 0.186Stream size : 1.81 GiB (73%)Title : Tinker Bell (2008) [rutracker.org]Writing library : x264 core 144 r2525kMod 40bb568Encoding settings : cabac=1 / ref=11 / deblock=1:-2:-1 / analyse=0x3:0x133 / me=umh / subme=11 / psy=1 / fade_compensate=0.00 / psy_rd=1.00:0.05 / mixed_ref=1 / me_range=32 / chroma_me=1 / trellis=2 / 8x8dct=1 / cqm=0 / deadzone=21,11 / fast_pskip=0 / chroma_qp_offset=-3 / threads=12 / lookahead_threads=3 / sliced_threads=0 / nr=0 / decimate=1 / interlaced=0 / bluray_compat=0 / constrained_intra=0 / fgo=0 / bframes=14 / b_pyramid=2 / b_adapt=2 / b_bias=0 / direct=3 / weightb=1 / open_gop=0 / weightp=2 / keyint=250 / keyint_min=23 / scenecut=40 / intra_refresh=0 / rc_lookahead=80 / rc=crf / mbtree=0 / crf=17.1000 / qcomp=0.60 / qpmin=0 / qpmax=69 / qpstep=4 / vbv_maxrate=50000 / vbv_bufsize=62500 / crf_max=0.0 / nal_hrd=none / filler=0 / ip_ratio=1.40 / pb_ratio=1.30 / aq=3:0.90Language : EnglishDefault : YesForced : No
Audio #1ID : 2Format : AC-3Format/Info : Audio Coding 3Mode extension : CM (complete main)Format settings, Endianness : BigCodec ID : A_AC3Duration : 1h 17mnBit rate mode : ConstantBit rate : 384 KbpsChannel(s) : 6 channelsChannel positions : Front: L C R, Side: L R, LFESampling rate : 48.0 KHzBit depth : 16 bitsCompression mode : LossyStream size : 214 MiB (8%)Title : DubLanguage : RussianDefault : YesForced : No
Audio #2ID : 3Format : AC-3Format/Info : Audio Coding 3Mode extension : CM (complete main)Format settings, Endianness : BigCodec ID : A_AC3Duration : 1h 17mnBit rate mode : ConstantBit rate : 384 KbpsChannel(s) : 6 channelsChannel positions : Front: L C R, Side: L R, LFESampling rate : 48.0 KHzBit depth : 16 bitsCompression mode : LossyStream size : 214 MiB (8%)Title : DubLanguage : UkrainianDefault : NoForced : No
Audio #3ID : 4Format : AC-3Format/Info : Audio Coding 3Mode extension : CM (complete main)Format settings, Endianness : BigCodec ID : A_AC3Duration : 1h 17mnBit rate mode : ConstantBit rate : 384 KbpsChannel(s) : 6 channelsChannel positions : Front: L C R, Side: L R, LFESampling rate : 48.0 KHzBit depth : 16 bitsCompression mode : LossyStream size : 214 MiB (8%)Title : OriginalLanguage : EnglishDefault : NoForced : No
Text #1ID : 5Format : UTF-8Codec ID : S_TEXT/UTF8Codec ID/Info : UTF-8 Plain TextTitle : FullLanguage : RussianDefault : NoForced : No
Text #2ID : 6Format : UTF-8Codec ID : S_TEXT/UTF8Codec ID/Info : UTF-8 Plain TextTitle : FullLanguage : UkrainianDefault : NoForced : No
Text #3ID : 7Format : UTF-8Codec ID : S_TEXT/UTF8Codec ID/Info : UTF-8 Plain TextLanguage : EnglishDefault : NoForced : No
Menu00:00:00.000 : en:00:00:00.00000:02:54.841 : en:00:02:54.84100:08:16.121 : en:00:08:16.12100:14:30.161 : en:00:14:30.16100:20:30.521 : en:00:20:30.52100:24:27.883 : en:00:24:27.88300:29:51.373 : en:00:29:51.37300:35:04.102 : en:00:35:04.10200:40:58.331 : en:00:40:58.33100:43:01.954 : en:00:43:01.95400:47:15.833 : en:00:47:15.83300:52:47.373 : en:00:52:47.37300:56:39.646 : en:00:56:39.64601:00:05.060 : en:01:00:05.06001:04:46.883 : en:01:04:46.88301:10:35.398 : en:01:10:35.398

Скриншоты





_________________
Показать сообщения:    

Текущее время: Сегодня 04:06

Часовой пояс: GMT



Вы не можете начинать темы
Вы не можете отвечать на сообщения
Вы не можете редактировать свои сообщения
Вы не можете удалять свои сообщения
Вы не можете голосовать в опросах
Вы не можете прикреплять файлы к сообщениям
Вы не можете скачивать файлы