Важное объявление!
У Нас Все раздачи мультитрекерные, при нуле пиров в релизах, можете смело вставать на закачку!
 
Автор Сообщение

HUNTER

Стаж:
4 года 8 месяцев
Сообщений:
62116

Репутация: 101

[+] [-]
Вне форума [Профиль] [ЛС]

Феи / Tinker Bell
Страна: США
Жанр: мультфильм, фэнтези, приключения, семейный
Год выпуска: 2008
Продолжительность: 01:17:57
Перевод: Авторский (одноголосый закадровый) Евгений Гранкин [Звук с СAMRip]
Cубтитры: нет
Оригинальная аудиодорожка: английская
Режиссер: Брэдли Рэймонд / Bradley Raymond
Роли озвучивали: Мэй Уитман, Кристин Ченоуэт, Рэйвен, Люси Лью, Америка Феррера, Джейн Хоррокс, Джесси МакКартни, Джефф Беннетт, Роб Полсен, Памела Адлон
Описание: Добро пожаловать в волшебный мир, населенный очаровательными обитательницами Долины Фей. Это чудесное место, наполненное мифами, магией и волшебством. Долина Фей — это целое королевство, каждый житель которого обладает своим, необыкновенным талантам, а все вместе феи выполняют очень важную работу — они заботятся о природе и помогают временам года сменять друг друга: помогают листьям менять цвет, солнечным лучам — растапливать снег, зверям, оставшимся на зимнюю спячку — выбираться из своих нор и берлог.
Фея Динь-Динь считает, что ее талант по починке кастрюль и чайников, не так важен, как умения других фей. Но когда Динь-Динь решает заняться чем-то другим, из этого не получается ничего, кроме всеобщего замешательства! С помощью своих подруг она понимает, что главное в жизни — быть честной с самой собой, и тогда-то и родится подлинная магия.
Доп. информация:
Исходник Гранкина (CAMRip) - B@G
Синхронизация Гранкина - Данис Нурмухаметов
За видео спасибо dragomire
Сэмпл: http://yadi.sk/d/47k9oTzz65Exu
Качество видео: BDRip
Формат видео: AVI
Видео: 720x400 (1.80:1), 23,976 fps, XviD 63 ~2229 kbps avg, 0.32 bit/pixel
Аудио #1: 48 kHz, AC3 Dolby Digital, 2/0 (L,R) ch, ~224 kbps (Гранкин)
Аудио #2: 48 kHz, AC3 Dolby Digital, 2/0 (L,R) ch, ~224 kbps (English)

MediaInfo

Общее
Полное имя : E:\Tinker.Bell.2008.BDRip.RUS.ENG.XviD.AC3.AVO.Grankin.avi
Формат : AVI
Формат/Информация : Audio Video Interleave
Размер файла : 1,47 Гбайт
Продолжительность : 1 ч. 17 м.
Общий поток : 2691 Кбит/сек
Программа кодирования : VirtualDubMod 1.5.10.2 (build 2540/release)
Библиотека кодирования : VirtualDubMod build 2540/release
Видео
Идентификатор : 0
Формат : MPEG-4 Visual
Профиль формата : Advanced Simple@L5
Параметр BVOP формата : 1
Параметр QPel формата : Нет
Параметр GMC формата : Без точки перехода
Параметр матрицы формата : Выборочная
Идентификатор кодека : XVID
Идентификатор кодека/Подсказка : XviD
Продолжительность : 1 ч. 17 м.
Битрейт : 2229 Кбит/сек
Ширина : 720 пикселей
Высота : 400 пикселей
Соотношение сторон : 16:9
Частота кадров : 23,976 кадра/сек
Цветовое пространство : YUV
Субдискретизация насыщенности : 4:2:0
Битовая глубина : 8 бит
Тип развёртки : Прогрессивная
Метод сжатия : С потерями
Бит/(Пиксели*Кадры) : 0.323
Размер потока : 1,21 Гбайт (83%)
Библиотека кодирования : XviD 63
Аудио #1
Идентификатор : 1
Формат : AC-3
Формат/Информация : Audio Coding 3
Расширение режима : CM (complete main)
Параметр Endianness формата : Big
Идентификатор кодека : 2000
Продолжительность : 1 ч. 17 м.
Вид битрейта : Постоянный
Битрейт : 224 Кбит/сек
Каналы : 2 канала
Расположение каналов : Front: L R
Частота : 48,0 КГц
Битовая глубина : 16 бит
Метод сжатия : С потерями
Размер потока : 125 Мбайт (8%)
Выравнивание : Разделение по промежуткам
Продолжительность промежутка : 42 мс. (1,00 видеокадр)
Время предзагрузки промежутка : 500 мс.
Аудио #2
Идентификатор : 2
Формат : AC-3
Формат/Информация : Audio Coding 3
Расширение режима : CM (complete main)
Параметр Endianness формата : Big
Идентификатор кодека : 2000
Продолжительность : 1 ч. 17 м.
Вид битрейта : Постоянный
Битрейт : 224 Кбит/сек
Каналы : 2 канала
Расположение каналов : Front: L R
Частота : 48,0 КГц
Битовая глубина : 16 бит
Метод сжатия : С потерями
Размер потока : 125 Мбайт (8%)
Выравнивание : Разделение по промежуткам
Продолжительность промежутка : 42 мс. (1,00 видеокадр)
Время предзагрузки промежутка : 500 мс.

Скриншот c названием фильма

Скриншоты



_________________
Показать сообщения:    

Текущее время: Сегодня 18:35

Часовой пояс: GMT



Вы не можете начинать темы
Вы не можете отвечать на сообщения
Вы не можете редактировать свои сообщения
Вы не можете удалять свои сообщения
Вы не можете голосовать в опросах
Вы не можете прикреплять файлы к сообщениям
Вы не можете скачивать файлы
Наши партнеры: интернет магазин Ивановского трикотажа textilla.ru