Важное объявление!
У Нас Все раздачи мультитрекерные, при нуле пиров в релизах, можете смело вставать на закачку!
Статистика раздачи
Размер:     |    Зарегистрирован:     |    Скачан:     |   
Нет
 
     
 
 
Автор Сообщение

HUNTER

Стаж:
5 лет
Сообщений:
67921

Репутация: 101

[+] [-]
Вне форума [Профиль] [ЛС]

Феи: Тайна зимнего леса / Secret of the Wings
«Два мира. Одна тайна»
--
Страна: США
Жанр: мультфильм, фэнтези, приключения, семейный
Продолжительность: 01:15:04
Год выпуска: 2012
Перевод: Профессиональный (дублированный)
+ Оригинальная звуковая дорожка: Английский
Русские субтитры: есть--Режиссёр: Роберт Ганнавей, Пегги Холмс / Robert Gannaway, Peggy Holmes--Роли озвучивали: Тимоти Далтон, Люси Хейл, Меган Хилти, Анжелика Хьюстон, Мэтт Лантер, Джесси МакКартни, Мэй Уитман, Люси Лью, Рэйвен, Дебби Райан--Описание: Динь-Динь и ее подруги всегда боялись пересекать границу с Зимним лесом, ведь существует поверье, что там очень опасно. В один прекрасный день Динь-Динь, сгорая от любопытства, подходит вплотную к лесу, и ее крылья неожиданно начинают блестеть и переливаться. Завороженная Динь, желая узнать тайну волшебных крыльев, кутается в теплое пальто и отправляется в глубь таинственного леса, где ее ждет неожиданное открытие…--Релиз:
Автор рипа: Joker--Сэмпл | kinopoisk.ru | IMdB--Качество: BDRip | исх. [bluebird.Blu-ray Disc.1080p]
Формат: AVI
Видео: 704x400 (1.76:1), 23.976 fps, XviD build 65 ~1858 kbps avg, 0.28 bit/pixel
Аудио# 1: 48.0 kHz, AC3 Dolby Digital, 3/2 (L,C,R,l,r) + LFE ch, ~448 kbps avg |RUS (DUB - BD EUR)|
Аудио# 2: 48.0 kHz, AC3 Dolby Digital, 3/2 (L,C,R,l,r) + LFE ch, ~448 kbps avg |ENG (ORIGINAL)|
Субтитры: русские (полные, форсированные), английские (Full, SDH) (внешние, srt*)

Подробные технические данные

ОбщееПолное имя : A:\Фильмы\Fei.Tajna.zimnego.lesa.2012.DUAL.BDRip.XviD.AC3.-HQCLUB\Fei.Tajna.zimnego.lesa.2012.DUAL.BDRip.XviD.AC3.-HQCLUB.aviФормат : AVIФормат/Информация : Audio Video InterleaveРазмер файла : 1,45 ГбайтПродолжительность : 1 ч. 15 м.Общий поток : 2769 Кбит/секНазвание фильма : Fei.Tajna.zimnego.lesa.2012.DUAL.BDRip.XviD.AC3.-HQCLUBПрограмма кодирования : VirtualDubMod 1.5.10.2 (build 2542/release)Примечание : 17.12.12
ВидеоИдентификатор : 0Формат : MPEG-4 VisualПрофиль формата : Advanced Simple@L5Параметр BVOP формата : 1Параметр QPel формата : НетПараметр GMC формата : Без точки переходаПараметр матрицы формата : ВыборочнаяИдентификатор кодека : XVIDИдентификатор кодека/Подсказка : XviDПродолжительность : 1 ч. 15 м.Битрейт : 1859 Кбит/секШирина : 704 пикселяВысота : 400 пикселейСоотношение сторон : 16:9Частота кадров : 23,976 кадра/секЦветовое пространство : YUVСубдискретизация насыщенности : 4:2:0Битовая глубина : 8 битТип развёртки : ПрогрессивнаяМетод сжатия : С потерямиБит/(Пиксели*Кадры) : 0.275Размер потока : 998 Мбайт (67%)Библиотека кодирования : XviD 65
Аудио #1Идентификатор : 1Формат : AC-3Формат/Информация : Audio Coding 3Расширение режима : CM (complete main)Параметр Endianness формата : BigИдентификатор кодека : 2000Продолжительность : 1 ч. 15 м.Вид битрейта : ПостоянныйБитрейт : 448 Кбит/секКаналы : 6 каналовРасположение каналов : Front: L C R, Side: L R, LFEЧастота : 48,0 КГцБитовая глубина : 16 битМетод сжатия : С потерямиРазмер потока : 241 Мбайт (16%)Выравнивание : Разделение по промежуткамПродолжительность промежутка : 42 мс. (1,00 видеокадр)Время предзагрузки промежутка : 500 мс.
Аудио #2Идентификатор : 2Формат : AC-3Формат/Информация : Audio Coding 3Расширение режима : CM (complete main)Параметр Endianness формата : BigИдентификатор кодека : 2000Продолжительность : 1 ч. 15 м.Вид битрейта : ПостоянныйБитрейт : 448 Кбит/секКаналы : 6 каналовРасположение каналов : Front: L C R, Side: L R, LFEЧастота : 48,0 КГцБитовая глубина : 16 битМетод сжатия : С потерямиРазмер потока : 241 Мбайт (16%)Выравнивание : Разделение по промежуткамПродолжительность промежутка : 42 мс. (1,00 видеокадр)Время предзагрузки промежутка : 500 мс.
ОбщееПолное имя : A:\Фильмы\Fei.Tajna.zimnego.lesa.2012.DUAL.BDRip.XviD.AC3.-HQCLUB\Fei.Tajna.zimnego.lesa.2012.DUAL.BDRip.XviD.AC3.-HQCLUB.ENG.SDH.srtФормат : SubRipРазмер файла : 74,0 Кбайт
ТекстФормат : SubRipМетод сжатия : Без потерь
ОбщееПолное имя : A:\Фильмы\Fei.Tajna.zimnego.lesa.2012.DUAL.BDRip.XviD.AC3.-HQCLUB\Fei.Tajna.zimnego.lesa.2012.DUAL.BDRip.XviD.AC3.-HQCLUB.ENG.srtФормат : SubRipРазмер файла : 60,3 Кбайт
ТекстФормат : SubRipМетод сжатия : Без потерь
ОбщееПолное имя : A:\Фильмы\Fei.Tajna.zimnego.lesa.2012.DUAL.BDRip.XviD.AC3.-HQCLUB\Fei.Tajna.zimnego.lesa.2012.DUAL.BDRip.XviD.AC3.-HQCLUB.RUS.FORCED.srtФормат : SubRipРазмер файла : 138 байт
ТекстФормат : SubRipМетод сжатия : Без потерь
ОбщееПолное имя : A:\Фильмы\Fei.Tajna.zimnego.lesa.2012.DUAL.BDRip.XviD.AC3.-HQCLUB\Fei.Tajna.zimnego.lesa.2012.DUAL.BDRip.XviD.AC3.-HQCLUB.RUS.srtРазмер файла : 69,1 Кбайт

Скриншоты



_________________
Показать сообщения:    

Текущее время: Сегодня 18:58

Часовой пояс: GMT



Вы не можете начинать темы
Вы не можете отвечать на сообщения
Вы не можете редактировать свои сообщения
Вы не можете удалять свои сообщения
Вы не можете голосовать в опросах
Вы не можете прикреплять файлы к сообщениям
Вы не можете скачивать файлы