Важное объявление!
У Нас Все раздачи мультитрекерные, при нуле пиров в релизах, можете смело вставать на закачку!
 
Автор Сообщение

HUNTER

Стаж:
4 года 9 месяцев
Сообщений:
65047

Репутация: 101

[+] [-]
Вне форума [Профиль] [ЛС]

Феи: Загадка пиратского острова / Tinker Bell and The Pirate Fairy
Страна: США
Студия: DisneyToon Studios, Prana Studios
Жанр: мультфильм, фэнтези, детский, приключения
Год выпуска: 2014
Продолжительность: 01:18:05
Перевод: профессиональный (дублированный) [Blu-ray]
Оригинальная аудиодорожка: английская
Cубтитры: русские, английские
Режиссер: Пегги Холмс / Peggy Holmes
Роли озвучивали: Кристина Хендрикс, Мэй Уитман, Том Хиддлстон, Памела Адлон, Анджела Бартис, Меган Хилти, Люси Лью, Рэйвен, Джим Каммингс, Кевин Майкл Ричардсон
Роли дублировали: Анастасия Цветаева, Анна Бегунова, Елена Великанова, Ирина Рахманова, Елена Катина, Оксана Фёдорова, Ольга Арнтгольц
Описание: История о Зарине, смышленой и амбициозной фее, собирающей пыльцу растений. Все начинается с того, что она похищает волшебную пыльцу фей…

Релиз: fanatus
Качество видео: BDRip 1080p
Исходник: TINKER BELL AND PIRATE FAIRY.2014.Blu-ray Disc 1080p
Контейнер: MKV
Видео: MPEG-4 AVC, 12.7 Mbps, 1920x1080 (16:9), 23.976 fps, 0.255 bit/pixel
Аудио 1: русский (AC3, 6 ch, 48 kHz, 640 kbps)
Аудио 2: английский (DTS, 6 ch, 48 kHz, 1510 kbps)
Формат субтитров: softsub (SRT)
Главы: есть
MediaInfo
General
Unique ID : 233016769632884206155554542601001755060 (0xAF4D65BD3038E531A90AF3552BD3E1B4)
Complete name : E:\The_Pirate_Fairy.2014.x264.BDRip.1080p.fanatus.mkv
Format : Matroska
Format version : Version 2
File size : 8.10 GiB
Duration : 1h 18mn
Overall bit rate : 14.8 Mbps
Movie name : The Pirate Fairy (2014) - fanatus
Encoded date : UTC 2014-05-14 07:23:33
Writing application : mkvmerge v3.4.0 ('Rapunzel') сборка от May 15 2010 09:38:20
Writing library : libebml v0.8.0 + libmatroska v0.9.0
Video
ID : 1
Format : AVC
Format/Info : Advanced Video Codec
Format profile : High@L4.1
Format settings, CABAC : Yes
Format settings, ReFrames : 4 frames
Codec ID : V_MPEG4/ISO/AVC
Duration : 1h 18mn
Bit rate : 12.7 Mbps
Width : 1 920 pixels
Height : 1 080 pixels
Display aspect ratio : 16:9
Frame rate : 23.976 fps
Color space : YUV
Chroma subsampling : 4:2:0
Bit depth : 8 bits
Scan type : Progressive
Bits/(Pixel*Frame) : 0.255
Stream size : 6.76 GiB (84%)
Title : The Pirate Fairy (2014) BDRip (1080p)
Writing library : x264 core 142 r2431+42 c69a006 tMod [8-bit@all X86]
Encoding settings : cabac=1 / ref=4 / deblock=1:-3:-3 / analyse=0x3:0x113 / me=tesa / subme=11 / psy=1 / fade_compensate=0.00 / psy_rd=0.99:0.00 / mixed_ref=1 / me_range=64 / chroma_me=1 / trellis=2 / 8x8dct=1 / cqm=0 / deadzone=21,11 / fast_pskip=0 / chroma_qp_offset=-2 / threads=16 / lookahead_threads=2 / sliced_threads=0 / nr=0 / decimate=0 / interlaced=0 / bluray_compat=0 / constrained_intra=0 / fgo=0 / bframes=8 / b_pyramid=2 / b_adapt=2 / b_bias=0 / direct=3 / weightb=1 / open_gop=0 / weightp=2 / keyint=240 / keyint_min=23 / scenecut=40 / intra_refresh=0 / rc_lookahead=240 / rc=2pass / mbtree=1 / bitrate=12700 / ratetol=1.0 / qcomp=0.75 / qpmin=0:0:0 / qpmax=69:69:69 / qpstep=4 / cplxblur=20.0 / qblur=0.5 / vbv_maxrate=50000 / vbv_bufsize=62500 / nal_hrd=none / filler=0 / ip_ratio=1.30 / aq=4:0.70 / aq-sensitivity=10.00 / aq-factor=1.00:1.00:1.00 / aq2=0 / aq3=0
Language : English
Default : Yes
Forced : No
Audio #1
ID : 2
Format : AC-3
Format/Info : Audio Coding 3
Mode extension : CM (complete main)
Format settings, Endianness : Big
Codec ID : A_AC3
Duration : 1h 18mn
Bit rate mode : Constant
Bit rate : 640 Kbps
Channel(s) : 6 channels
Channel positions : Front: L C R, Side: L R, LFE
Sampling rate : 48.0 KHz
Bit depth : 16 bits
Compression mode : Lossy
Stream size : 357 MiB (4%)
Title : Dub (Blu-ray)
Language : Russian
Default : Yes
Forced : No
Audio #2
ID : 3
Format : DTS
Format/Info : Digital Theater Systems
Codec ID : A_DTS
Duration : 1h 18mn
Bit rate mode : Constant
Bit rate : 1 510 Kbps
Channel(s) : 6 channels
Channel positions : Front: L C R, Side: L R, LFE
Sampling rate : 48.0 KHz
Bit depth : 24 bits
Compression mode : Lossy
Stream size : 843 MiB (10%)
Title : Original
Language : English
Default : No
Forced : No
Text #1
ID : 4
Format : UTF-8
Codec ID : S_TEXT/UTF8
Codec ID/Info : UTF-8 Plain Text
Title : Forced
Language : Russian
Default : Yes
Forced : Yes
Text #2
ID : 5
Format : UTF-8
Codec ID : S_TEXT/UTF8
Codec ID/Info : UTF-8 Plain Text
Title : iTunes
Language : Russian
Default : No
Forced : No
Text #3
ID : 6
Format : UTF-8
Codec ID : S_TEXT/UTF8
Codec ID/Info : UTF-8 Plain Text
Title : Forced
Language : English
Default : No
Forced : No
Text #4
ID : 7
Format : UTF-8
Codec ID : S_TEXT/UTF8
Codec ID/Info : UTF-8 Plain Text
Title : iTunes
Language : English
Default : No
Forced : No
Text #5
ID : 8
Format : UTF-8
Codec ID : S_TEXT/UTF8
Codec ID/Info : UTF-8 Plain Text
Title : SDH
Language : English
Default : No
Forced : No
Text #6
ID : 9
Format : UTF-8
Codec ID : S_TEXT/UTF8
Codec ID/Info : UTF-8 Plain Text
Title : SDH-Colored
Language : English
Default : No
Forced : No
Menu
00:00:00.000 : en:Chapter 1
00:04:05.996 : en:Chapter 2
00:07:36.665 : en:Chapter 3
00:14:32.747 : en:Chapter 4
00:20:17.925 : en:Chapter 5
00:28:10.814 : en:Chapter 6
00:33:03.607 : en:Chapter 7
00:40:12.201 : en:Chapter 8
00:45:53.334 : en:Chapter 9
00:53:51.520 : en:Chapter 10
01:03:41.609 : en:Chapter 11
01:08:40.742 : en:Chapter 12
x264 [info]
x264 [info]: 1920x1080p 1:1 @ 24000/1001 fps (cfr)
x264 [info]: started at Tue May 13 01:39:47 2014
x264 [info]: frame I:1163 Avg QP:11.56 size:427626
x264 [info]: frame P:36127 Avg QP:15.05 size:106382
x264 [info]: frame B:75045 Avg QP:17.57 size: 41202
x264 [info]: consecutive B-frames: 7.6% 9.5% 24.5% 30.5% 14.4% 11.2% 1.2% 0.7% 0.5%
x264 [info]: mb I I16..4: 2.2% 88.7% 9.1%
x264 [info]: mb P I16..4: 1.6% 15.8% 1.3% P16..4: 31.8% 22.0% 9.1% 0.0% 0.0% skip:18.4%
x264 [info]: mb B I16..4: 0.2% 3.1% 0.2% B16..8: 27.1% 12.5% 2.9% direct: 6.2% skip:47.8% L0:37.5% L1:44.4% BI:18.1%
x264 [info]: 8x8 transform intra:85.8% inter:58.4%
x264 [info]: direct mvs spatial:97.4% temporal:2.6%
x264 [info]: coded y,uvDC,uvAC intra: 84.5% 88.5% 69.1% inter: 22.8% 26.0% 12.7%
x264 [info]: i16 v,h,dc,p: 9% 10% 5% 76%
x264 [info]: i8 v,h,dc,ddl,ddr,vr,hd,vl,hu: 13% 13% 15% 8% 9% 9% 10% 10% 12%
x264 [info]: i4 v,h,dc,ddl,ddr,vr,hd,vl,hu: 12% 9% 8% 9% 16% 14% 13% 10% 11%
x264 [info]: i8c dc,h,v,p: 44% 24% 16% 16%
x264 [info]: Weighted P-Frames: Y:1.6% UV:1.0%
x264 [info]: ref P L0: 66.1% 9.0% 16.4% 6.6% 1.8% 0.0%
x264 [info]: ref B L0: 89.0% 9.1% 1.9%
x264 [info]: ref B L1: 93.3% 6.7%
x264 [info]: kb/s:12690.85
x264 [info]: encoded 112335 frames, 1.009 fps, 12690.85 kb/s, 7088.2 MB
x264 [info]: ended at Wed May 14 08:34:57 2014
x264 [info]: encoding duration 30:55:10
Скриншот c названием фильмаСкриншотыSource vs Rip

_________________
Показать сообщения:    

Текущее время: Сегодня 16:11

Часовой пояс: GMT



Вы не можете начинать темы
Вы не можете отвечать на сообщения
Вы не можете редактировать свои сообщения
Вы не можете удалять свои сообщения
Вы не можете голосовать в опросах
Вы не можете прикреплять файлы к сообщениям
Вы не можете скачивать файлы