Важное объявление!
У Нас Все раздачи мультитрекерные, при нуле пиров в релизах, можете смело вставать на закачку!
 
Автор Сообщение

HUNTER

Стаж:
4 года 11 месяцев
Сообщений:
66039

Репутация: 101

[+] [-]
Вне форума [Профиль] [ЛС]

Федеральная защита / Federal Protection
Страна: США, Канада
Студия: Promark EG
Жанр: Боевик
Год выпуска: 2002
Продолжительность: 01:29:51
Перевод: Авторский (одноголосый закадровый) Сергей Визгунов
Cубтитры: нет
Оригинальная аудиодорожка: английский
Режиссер: Энтони Хикокс / Anthony Hickox
В ролях: Арманд Ассанте, Дина Мейер, Энджела Фезерстоун, Тони Калабретта, Дэвид Липпер
Описание: Решив отказаться от грязного бизнеса, Фрэнк сдает своих подельников полиции. Теперь он вынужден жить под прикрытием федеральной программы защиты свидетелей – у него новое имя и адрес. Между ним и молодой женщиной, живущей по соседству, завязывается роман. Но все это рушится в один момент, когда его пассия узнает в нем преступника и сообщает об этом своей сестре. За голову Фрэнка мафия готова выложить 2 миллиона долларов. Решив заработать "немного" денег, предприимчивая сестра начинает свою игру. Оказавшись под прицелом, Фрэнк вынужден выбирать между своей жизнью и жизнью своей возлюбленной.
Бонусы: Трейлер фильма на английском языке
Меню: меню статичное
IMDB
DVDRip 1.37gb DVO
Сэмпл: http://rusfolder.com/40993155
Тип релиза: DVD5
Контейнер: DVD-Video
Видео: MPEG 2 Video PAL 4:3 (720x576) VBR~4712Kbps 25fps
Аудио 1: Русский AVO Серегей Визгунов AC3, 2.0 channels 48.0 KHz 192kbps
Аудио 2: English Original AC3, 2.0 channels 48.0 KHz 192kbps
DVDInfo
Title: FEDERAL_PROTECTION
Size: 3.24 Gb ( 3 394 740,00 KBytes ) - DVD-5
Enabled regions: 1, 2, 3, 4, 5, 6
VTS_01 :
Play Length: 01:29:50
Video: PAL 4:3 (720x576) VBR
Audio:
Russian, AC3, 2/0 (L,R) ch, 192 kbps, Delay 0 mSec
English, AC3, 2/0 (L,R) ch, 192 kbps, Delay 0 mSec
VTS_02 :
Play Length: 00:02:14
Video: PAL 4:3 (720x576) VBR
Audio:
English (Dolby AC3, 2 ch)
* Menus Information *
VIDEO_TS Menu
Video:
PAL 4:3 (720x576) VBR
English Language Unit :
Title Menu
VTS_01 Menu
Video:
PAL 4:3 (720x576) VBR
English Language Unit :
Root Menu
Audio Menu
Chapter (PTT) Menu
VTS_02 Menu
Video:
PAL 4:3 (720x576) VBR
English Language Unit :
Root Menu
MediaInfo
General
Complete name : F:\FEDERAL_PROTECTION\VIDEO_TS\VIDEO_TS.BUP

Format : DVD Video
Format profile : Menu
File size : 14.0 KiB
Overall bit rate mode : Variable
Video
ID : 224 (0xE0)
Format : MPEG Video
Format version : Version 2
Bit rate mode : Variable
Width : 720 pixels
Height : 576 pixels
Display aspect ratio : 4:3
Frame rate : 25.000 fps
Standard : PAL
Compression mode : Lossy
Text
Format : RLE
Format/Info : Run-length encoding
Bit depth : 2 bits
General
Complete name : F:\FEDERAL_PROTECTION\VIDEO_TS\VIDEO_TS.IFO

Format : DVD Video
Format profile : Menu
File size : 14.0 KiB
Overall bit rate mode : Variable
Video
ID : 224 (0xE0)
Format : MPEG Video
Format version : Version 2
Bit rate mode : Variable
Width : 720 pixels
Height : 576 pixels
Display aspect ratio : 4:3
Frame rate : 25.000 fps
Standard : PAL
Compression mode : Lossy
Text
Format : RLE
Format/Info : Run-length encoding
Bit depth : 2 bits
General
Complete name : F:\FEDERAL_PROTECTION\VIDEO_TS\VIDEO_TS.VOB

Format : MPEG-PS
File size : 154 KiB
Duration : 520ms
Overall bit rate : 2 426 Kbps
Video
ID : 224 (0xE0)
Format : MPEG Video
Format version : Version 2
Format profile : Main@Main
Format settings, BVOP : Yes
Format settings, Matrix : Custom
Duration : 520ms
Maximum bit rate : 2 000 Kbps
Width : 720 pixels
Height : 576 pixels
Display aspect ratio : 4:3
Frame rate : 25.000 fps
Standard : PAL
Color space : YUV
Chroma subsampling : 4:2:0
Bit depth : 8 bits
Scan type : Interlaced
Scan order : Top Field First
Compression mode : Lossy
Time code of first frame : 00:00:00:00
Time code source : Group of pictures header
Text
ID : 189 (0xBD)-32 (0x20)
Format : RLE
Format/Info : Run-length encoding
Muxing mode : DVD-Video
Delay relative to video : -80ms
Menu
General
Complete name : F:\FEDERAL_PROTECTION\VIDEO_TS\VTS_01_0.BUP

Format : DVD Video
Format profile : Program
File size : 68.0 KiB
Duration : 1h 29mn
Overall bit rate mode : Variable
Overall bit rate : 103 bps
Video
ID : 224 (0xE0)
Format : MPEG Video
Format version : Version 2
Duration : 1h 29mn
Bit rate mode : Variable
Width : 720 pixels
Height : 576 pixels
Display aspect ratio : 4:3
Frame rate : 25.000 fps
Standard : PAL
Compression mode : Lossy
Audio #1
ID : 128 (0x80)
Format : AC-3
Format/Info : Audio Coding 3
Duration : 1h 29mn
Channel(s) : 2 channels
Sampling rate : 48.0 KHz
Compression mode : Lossy
Language : Russian
Audio #2
ID : 129 (0x81)
Format : AC-3
Format/Info : Audio Coding 3
Duration : 1h 29mn
Channel(s) : 2 channels
Sampling rate : 48.0 KHz
Compression mode : Lossy
Language : English
Audio #3
Format : AC-3
Format/Info : Audio Coding 3
Duration : 1h 29mn
Channel(s) : 6 channels
Sampling rate : 48.0 KHz
Compression mode : Lossy
Language : English
Audio #4
Format : AC-3
Format/Info : Audio Coding 3
Duration : 1h 29mn
Channel(s) : 6 channels
Sampling rate : 48.0 KHz
Compression mode : Lossy
Language : English
Audio #5
Format : AC-3
Format/Info : Audio Coding 3
Duration : 1h 29mn
Channel(s) : 6 channels
Sampling rate : 48.0 KHz
Compression mode : Lossy
Language : English
Audio #6
Format : AC-3
Format/Info : Audio Coding 3
Duration : 1h 29mn
Channel(s) : 6 channels
Sampling rate : 48.0 KHz
Compression mode : Lossy
Language : English
Audio #7
Format : AC-3
Format/Info : Audio Coding 3
Duration : 1h 29mn
Channel(s) : 6 channels
Sampling rate : 48.0 KHz
Compression mode : Lossy
Language : English
Audio #8
Format : AC-3
Format/Info : Audio Coding 3
Duration : 1h 29mn
Channel(s) : 6 channels
Sampling rate : 48.0 KHz
Compression mode : Lossy
Language : English
Text #1
Format : RLE
Format/Info : Run-length encoding
Bit depth : 2 bits
Text #2
Format : RLE
Format/Info : Run-length encoding
Bit depth : 2 bits
Text #3
Format : RLE
Format/Info : Run-length encoding
Bit depth : 2 bits
Text #4
Format : RLE
Format/Info : Run-length encoding
Bit depth : 2 bits
Text #5
Format : RLE
Format/Info : Run-length encoding
Bit depth : 2 bits
Text #6
Format : RLE
Format/Info : Run-length encoding
Bit depth : 2 bits
Text #7
Format : RLE
Format/Info : Run-length encoding
Bit depth : 2 bits
Text #8
Format : RLE
Format/Info : Run-length encoding
Bit depth : 2 bits
Text #9
Format : RLE
Format/Info : Run-length encoding
Bit depth : 2 bits
Text #10
Format : RLE
Format/Info : Run-length encoding
Bit depth : 2 bits
Text #11
Format : RLE
Format/Info : Run-length encoding
Bit depth : 2 bits
Text #12
Format : RLE
Format/Info : Run-length encoding
Bit depth : 2 bits
Text #13
Format : RLE
Format/Info : Run-length encoding
Bit depth : 2 bits
Text #14
Format : RLE
Format/Info : Run-length encoding
Bit depth : 2 bits
Text #15
Format : RLE
Format/Info : Run-length encoding
Bit depth : 2 bits
Text #16
Format : RLE
Format/Info : Run-length encoding
Bit depth : 2 bits
Text #17
Format : RLE
Format/Info : Run-length encoding
Bit depth : 2 bits
Text #18
Format : RLE
Format/Info : Run-length encoding
Bit depth : 2 bits
Text #19
Format : RLE
Format/Info : Run-length encoding
Bit depth : 2 bits
Text #20
Format : RLE
Format/Info : Run-length encoding
Bit depth : 2 bits
Text #21
Format : RLE
Format/Info : Run-length encoding
Bit depth : 2 bits
Text #22
Format : RLE
Format/Info : Run-length encoding
Bit depth : 2 bits
Text #23
Format : RLE
Format/Info : Run-length encoding
Bit depth : 2 bits
Text #24
Format : RLE
Format/Info : Run-length encoding
Bit depth : 2 bits
Text #25
Format : RLE
Format/Info : Run-length encoding
Bit depth : 2 bits
Text #26
Format : RLE
Format/Info : Run-length encoding
Bit depth : 2 bits
Text #27
Format : RLE
Format/Info : Run-length encoding
Bit depth : 2 bits
Text #28
Format : RLE
Format/Info : Run-length encoding
Bit depth : 2 bits
Text #29
Format : RLE
Format/Info : Run-length encoding
Bit depth : 2 bits
Text #30
Format : RLE
Format/Info : Run-length encoding
Bit depth : 2 bits
Text #31
Format : RLE
Format/Info : Run-length encoding
Bit depth : 2 bits
Text #32
Format : RLE
Format/Info : Run-length encoding
Bit depth : 2 bits
Menu
Duration : 1h 29mn
00:00:00.000 : Chapter 1
00:05:31.760 : Chapter 2
00:11:56.040 : Chapter 3
00:19:56.520 : Chapter 4
00:25:58.440 : Chapter 5
00:32:30.000 : Chapter 6
00:39:16.120 : Chapter 7
00:51:21.520 : Chapter 8
00:59:23.560 : Chapter 9
01:04:02.280 : Chapter 10
01:07:19.360 : Chapter 11
01:17:18.920 : Chapter 12
01:29:50.320 : Chapter 13
List (Audio) : 0 / 1
General
Complete name : F:\FEDERAL_PROTECTION\VIDEO_TS\VTS_01_0.IFO

Format : DVD Video
Format profile : Program
File size : 68.0 KiB
Duration : 1h 29mn
Overall bit rate mode : Variable
Overall bit rate : 103 bps
Video
ID : 224 (0xE0)
Format : MPEG Video
Format version : Version 2
Duration : 1h 29mn
Bit rate mode : Variable
Width : 720 pixels
Height : 576 pixels
Display aspect ratio : 4:3
Frame rate : 25.000 fps
Standard : PAL
Compression mode : Lossy
Audio #1
ID : 128 (0x80)
Format : AC-3
Format/Info : Audio Coding 3
Duration : 1h 29mn
Channel(s) : 2 channels
Sampling rate : 48.0 KHz
Compression mode : Lossy
Language : Russian
Audio #2
ID : 129 (0x81)
Format : AC-3
Format/Info : Audio Coding 3
Duration : 1h 29mn
Channel(s) : 2 channels
Sampling rate : 48.0 KHz
Compression mode : Lossy
Language : English
Audio #3
Format : AC-3
Format/Info : Audio Coding 3
Duration : 1h 29mn
Channel(s) : 6 channels
Sampling rate : 48.0 KHz
Compression mode : Lossy
Language : English
Audio #4
Format : AC-3
Format/Info : Audio Coding 3
Duration : 1h 29mn
Channel(s) : 6 channels
Sampling rate : 48.0 KHz
Compression mode : Lossy
Language : English
Audio #5
Format : AC-3
Format/Info : Audio Coding 3
Duration : 1h 29mn
Channel(s) : 6 channels
Sampling rate : 48.0 KHz
Compression mode : Lossy
Language : English
Audio #6
Format : AC-3
Format/Info : Audio Coding 3
Duration : 1h 29mn
Channel(s) : 6 channels
Sampling rate : 48.0 KHz
Compression mode : Lossy
Language : English
Audio #7
Format : AC-3
Format/Info : Audio Coding 3
Duration : 1h 29mn
Channel(s) : 6 channels
Sampling rate : 48.0 KHz
Compression mode : Lossy
Language : English
Audio #8
Format : AC-3
Format/Info : Audio Coding 3
Duration : 1h 29mn
Channel(s) : 6 channels
Sampling rate : 48.0 KHz
Compression mode : Lossy
Language : English
Text #1
Format : RLE
Format/Info : Run-length encoding
Bit depth : 2 bits
Text #2
Format : RLE
Format/Info : Run-length encoding
Bit depth : 2 bits
Text #3
Format : RLE
Format/Info : Run-length encoding
Bit depth : 2 bits
Text #4
Format : RLE
Format/Info : Run-length encoding
Bit depth : 2 bits
Text #5
Format : RLE
Format/Info : Run-length encoding
Bit depth : 2 bits
Text #6
Format : RLE
Format/Info : Run-length encoding
Bit depth : 2 bits
Text #7
Format : RLE
Format/Info : Run-length encoding
Bit depth : 2 bits
Text #8
Format : RLE
Format/Info : Run-length encoding
Bit depth : 2 bits
Text #9
Format : RLE
Format/Info : Run-length encoding
Bit depth : 2 bits
Text #10
Format : RLE
Format/Info : Run-length encoding
Bit depth : 2 bits
Text #11
Format : RLE
Format/Info : Run-length encoding
Bit depth : 2 bits
Text #12
Format : RLE
Format/Info : Run-length encoding
Bit depth : 2 bits
Text #13
Format : RLE
Format/Info : Run-length encoding
Bit depth : 2 bits
Text #14
Format : RLE
Format/Info : Run-length encoding
Bit depth : 2 bits
Text #15
Format : RLE
Format/Info : Run-length encoding
Bit depth : 2 bits
Text #16
Format : RLE
Format/Info : Run-length encoding
Bit depth : 2 bits
Text #17
Format : RLE
Format/Info : Run-length encoding
Bit depth : 2 bits
Text #18
Format : RLE
Format/Info : Run-length encoding
Bit depth : 2 bits
Text #19
Format : RLE
Format/Info : Run-length encoding
Bit depth : 2 bits
Text #20
Format : RLE
Format/Info : Run-length encoding
Bit depth : 2 bits
Text #21
Format : RLE
Format/Info : Run-length encoding
Bit depth : 2 bits
Text #22
Format : RLE
Format/Info : Run-length encoding
Bit depth : 2 bits
Text #23
Format : RLE
Format/Info : Run-length encoding
Bit depth : 2 bits
Text #24
Format : RLE
Format/Info : Run-length encoding
Bit depth : 2 bits
Text #25
Format : RLE
Format/Info : Run-length encoding
Bit depth : 2 bits
Text #26
Format : RLE
Format/Info : Run-length encoding
Bit depth : 2 bits
Text #27
Format : RLE
Format/Info : Run-length encoding
Bit depth : 2 bits
Text #28
Format : RLE
Format/Info : Run-length encoding
Bit depth : 2 bits
Text #29
Format : RLE
Format/Info : Run-length encoding
Bit depth : 2 bits
Text #30
Format : RLE
Format/Info : Run-length encoding
Bit depth : 2 bits
Text #31
Format : RLE
Format/Info : Run-length encoding
Bit depth : 2 bits
Text #32
Format : RLE
Format/Info : Run-length encoding
Bit depth : 2 bits
Menu
Duration : 1h 29mn
00:00:00.000 : Chapter 1
00:05:31.760 : Chapter 2
00:11:56.040 : Chapter 3
00:19:56.520 : Chapter 4
00:25:58.440 : Chapter 5
00:32:30.000 : Chapter 6
00:39:16.120 : Chapter 7
00:51:21.520 : Chapter 8
00:59:23.560 : Chapter 9
01:04:02.280 : Chapter 10
01:07:19.360 : Chapter 11
01:17:18.920 : Chapter 12
01:29:50.320 : Chapter 13
List (Audio) : 0 / 1
General
Complete name : F:\FEDERAL_PROTECTION\VIDEO_TS\VTS_01_0.VOB

Format : MPEG-PS
File size : 956 KiB
Duration : 40ms
Overall bit rate mode : Variable
Overall bit rate : 196 Mbps
Video
ID : 224 (0xE0)
Format : MPEG Video
Format version : Version 2
Format profile : Main@Main
Format settings, BVOP : No
Format settings, Matrix : Custom
Format settings, GOP : N=1
Duration : 40ms
Bit rate mode : Variable
Maximum bit rate : 8 000 Kbps
Width : 720 pixels
Height : 576 pixels
Display aspect ratio : 4:3
Frame rate : 25.000 fps
Standard : PAL
Color space : YUV
Chroma subsampling : 4:2:0
Bit depth : 8 bits
Scan type : Progressive
Scan order : Top Field First
Compression mode : Lossy
Color primaries : BT.601 PAL
Transfer characteristics : BT.470 System B, BT.470 System G
Matrix coefficients : BT.601
Text
ID : 189 (0xBD)-32 (0x20)
Format : RLE
Format/Info : Run-length encoding
Muxing mode : DVD-Video
Menu
General
Complete name : F:\FEDERAL_PROTECTION\VIDEO_TS\VTS_01_1.VOB

Format : MPEG-PS
File size : 1 024 MiB
Duration : 30mn 22s
Overall bit rate mode : Variable
Overall bit rate : 4 712 Kbps
Video
ID : 224 (0xE0)
Format : MPEG Video
Format version : Version 2
Format profile : Main@Main
Format settings, BVOP : Yes
Format settings, Matrix : Default
Format settings, GOP : M=5, N=26
Duration : 30mn 22s
Bit rate mode : Variable
Bit rate : 4 235 Kbps
Maximum bit rate : 8 000 Kbps
Width : 720 pixels
Height : 576 pixels
Display aspect ratio : 4:3
Frame rate : 25.000 fps
Standard : PAL
Color space : YUV
Chroma subsampling : 4:2:0
Bit depth : 8 bits
Scan type : Interlaced
Scan order : Top Field First
Compression mode : Lossy
Bits/(Pixel*Frame) : 0.408
Time code of first frame : 01:00:00:00
Time code source : Group of pictures header
Stream size : 920 MiB (90%)
Color primaries : BT.601 PAL
Transfer characteristics : BT.470 System B, BT.470 System G
Matrix coefficients : BT.601
Audio #1
ID : 189 (0xBD)-128 (0x80)
Format : AC-3
Format/Info : Audio Coding 3
Mode extension : CM (complete main)
Format settings, Endianness : Big
Muxing mode : DVD-Video
Duration : 30mn 22s
Bit rate mode : Constant
Bit rate : 192 Kbps
Channel(s) : 2 channels
Channel positions : Front: L R
Sampling rate : 48.0 KHz
Bit depth : 16 bits
Compression mode : Lossy
Stream size : 41.7 MiB (4%)
Audio #2
ID : 189 (0xBD)-129 (0x81)
Format : AC-3
Format/Info : Audio Coding 3
Mode extension : CM (complete main)
Format settings, Endianness : Big
Muxing mode : DVD-Video
Duration : 30mn 22s
Bit rate mode : Constant
Bit rate : 192 Kbps
Channel(s) : 2 channels
Channel positions : Front: L R
Sampling rate : 48.0 KHz
Bit depth : 16 bits
Compression mode : Lossy
Stream size : 41.7 MiB (4%)
Menu
General
Complete name : F:\FEDERAL_PROTECTION\VIDEO_TS\VTS_01_2.VOB

Format : MPEG-PS
File size : 1 024 MiB
Duration : 28mn 57s
Overall bit rate mode : Variable
Overall bit rate : 4 943 Kbps
Video
ID : 224 (0xE0)
Format : MPEG Video
Format version : Version 2
Format profile : Main@Main
Format settings, BVOP : Yes
Format settings, Matrix : Default
Format settings, GOP : M=5, N=26
Duration : 28mn 57s
Bit rate mode : Variable
Bit rate : 4 460 Kbps
Maximum bit rate : 8 000 Kbps
Width : 720 pixels
Height : 576 pixels
Display aspect ratio : 4:3
Frame rate : 25.000 fps
Standard : PAL
Color space : YUV
Chroma subsampling : 4:2:0
Bit depth : 8 bits
Scan type : Interlaced
Scan order : Top Field First
Compression mode : Lossy
Bits/(Pixel*Frame) : 0.430
Time code of first frame : 01:30:22:15
Time code source : Group of pictures header
Stream size : 924 MiB (90%)
Color primaries : BT.601 PAL
Transfer characteristics : BT.470 System B, BT.470 System G
Matrix coefficients : BT.601
Audio #1
ID : 189 (0xBD)-128 (0x80)
Format : AC-3
Format/Info : Audio Coding 3
Mode extension : CM (complete main)
Format settings, Endianness : Big
Muxing mode : DVD-Video
Duration : 28mn 57s
Bit rate mode : Constant
Bit rate : 192 Kbps
Channel(s) : 2 channels
Channel positions : Front: L R
Sampling rate : 48.0 KHz
Bit depth : 16 bits
Compression mode : Lossy
Delay relative to video : -296ms
Stream size : 39.8 MiB (4%)
Audio #2
ID : 189 (0xBD)-129 (0x81)
Format : AC-3
Format/Info : Audio Coding 3
Mode extension : CM (complete main)
Format settings, Endianness : Big
Muxing mode : DVD-Video
Duration : 28mn 57s
Bit rate mode : Constant
Bit rate : 192 Kbps
Channel(s) : 2 channels
Channel positions : Front: L R
Sampling rate : 48.0 KHz
Bit depth : 16 bits
Compression mode : Lossy
Delay relative to video : -360ms
Stream size : 39.8 MiB (4%)
Menu
General
Complete name : F:\FEDERAL_PROTECTION\VIDEO_TS\VTS_01_3.VOB

Format : MPEG-PS
File size : 1 024 MiB
Duration : 26mn 53s
Overall bit rate mode : Variable
Overall bit rate : 5 323 Kbps
Video
ID : 224 (0xE0)
Format : MPEG Video
Format version : Version 2
Format profile : Main@Main
Format settings, BVOP : Yes
Format settings, Matrix : Default
Format settings, GOP : M=5, N=26
Duration : 26mn 53s
Bit rate mode : Variable
Bit rate : 4 833 Kbps
Maximum bit rate : 8 000 Kbps
Width : 720 pixels
Height : 576 pixels
Display aspect ratio : 4:3
Frame rate : 25.000 fps
Standard : PAL
Color space : YUV
Chroma subsampling : 4:2:0
Bit depth : 8 bits
Scan type : Interlaced
Scan order : Top Field First
Compression mode : Lossy
Bits/(Pixel*Frame) : 0.466
Time code of first frame : 01:59:20:11
Time code source : Group of pictures header
Stream size : 929 MiB (91%)
Color primaries : BT.601 PAL
Transfer characteristics : BT.470 System B, BT.470 System G
Matrix coefficients : BT.601
Audio #1
ID : 189 (0xBD)-128 (0x80)
Format : AC-3
Format/Info : Audio Coding 3
Mode extension : CM (complete main)
Format settings, Endianness : Big
Muxing mode : DVD-Video
Duration : 26mn 53s
Bit rate mode : Constant
Bit rate : 192 Kbps
Channel(s) : 2 channels
Channel positions : Front: L R
Sampling rate : 48.0 KHz
Bit depth : 16 bits
Compression mode : Lossy
Delay relative to video : -504ms
Stream size : 36.9 MiB (4%)
Audio #2
ID : 189 (0xBD)-129 (0x81)
Format : AC-3
Format/Info : Audio Coding 3
Mode extension : CM (complete main)
Format settings, Endianness : Big
Muxing mode : DVD-Video
Duration : 26mn 53s
Bit rate mode : Constant
Bit rate : 192 Kbps
Channel(s) : 2 channels
Channel positions : Front: L R
Sampling rate : 48.0 KHz
Bit depth : 16 bits
Compression mode : Lossy
Delay relative to video : -504ms
Stream size : 36.9 MiB (4%)
Menu
General
Complete name : F:\FEDERAL_PROTECTION\VIDEO_TS\VTS_01_4.VOB

Format : MPEG-PS
File size : 141 MiB
Duration : 3mn 37s
Overall bit rate mode : Variable
Overall bit rate : 5 459 Kbps
Video
ID : 224 (0xE0)
Format : MPEG Video
Format version : Version 2
Format profile : Main@Main
Format settings, BVOP : Yes
Format settings, Matrix : Default
Format settings, GOP : M=5, N=26
Duration : 3mn 36s
Bit rate mode : Variable
Bit rate : 4 967 Kbps
Maximum bit rate : 8 000 Kbps
Width : 720 pixels
Height : 576 pixels
Display aspect ratio : 4:3
Frame rate : 25.000 fps
Standard : PAL
Color space : YUV
Chroma subsampling : 4:2:0
Bit depth : 8 bits
Scan type : Interlaced
Scan order : Top Field First
Compression mode : Lossy
Bits/(Pixel*Frame) : 0.479
Time code of first frame : 02:26:14:00
Time code source : Group of pictures header
Stream size : 128 MiB (91%)
Color primaries : BT.601 PAL
Transfer characteristics : BT.470 System B, BT.470 System G
Matrix coefficients : BT.601
Audio #1
ID : 189 (0xBD)-128 (0x80)
Format : AC-3
Format/Info : Audio Coding 3
Mode extension : CM (complete main)
Format settings, Endianness : Big
Muxing mode : DVD-Video
Duration : 3mn 37s
Bit rate mode : Constant
Bit rate : 192 Kbps
Channel(s) : 2 channels
Channel positions : Front: L R
Sampling rate : 48.0 KHz
Bit depth : 16 bits
Compression mode : Lossy
Delay relative to video : -496ms
Stream size : 4.97 MiB (4%)
Audio #2
ID : 189 (0xBD)-129 (0x81)
Format : AC-3
Format/Info : Audio Coding 3
Mode extension : CM (complete main)
Format settings, Endianness : Big
Muxing mode : DVD-Video
Duration : 3mn 37s
Bit rate mode : Constant
Bit rate : 192 Kbps
Channel(s) : 2 channels
Channel positions : Front: L R
Sampling rate : 48.0 KHz
Bit depth : 16 bits
Compression mode : Lossy
Delay relative to video : -496ms
Stream size : 4.97 MiB (4%)
Menu
General
Complete name : F:\FEDERAL_PROTECTION\VIDEO_TS\VTS_02_0.BUP

Format : DVD Video
Format profile : Program
File size : 18.0 KiB
Duration : 2mn 14s
Overall bit rate mode : Variable
Overall bit rate : 1 099 bps
Video
ID : 224 (0xE0)
Format : MPEG Video
Format version : Version 2
Duration : 2mn 14s
Bit rate mode : Variable
Width : 720 pixels
Height : 576 pixels
Display aspect ratio : 4:3
Frame rate : 25.000 fps
Standard : PAL
Compression mode : Lossy
Audio
ID : 128 (0x80)
Format : AC-3
Format/Info : Audio Coding 3
Duration : 2mn 14s
Channel(s) : 2 channels
Sampling rate : 48.0 KHz
Compression mode : Lossy
Language : English
Menu
Duration : 2mn 14s
00:00:00.000 : Chapter 1
List (Audio) : 0
General
Complete name : F:\FEDERAL_PROTECTION\VIDEO_TS\VTS_02_0.IFO

Format : DVD Video
Format profile : Program
File size : 18.0 KiB
Duration : 2mn 14s
Overall bit rate mode : Variable
Overall bit rate : 1 099 bps
Video
ID : 224 (0xE0)
Format : MPEG Video
Format version : Version 2
Duration : 2mn 14s
Bit rate mode : Variable
Width : 720 pixels
Height : 576 pixels
Display aspect ratio : 4:3
Frame rate : 25.000 fps
Standard : PAL
Compression mode : Lossy
Audio
ID : 128 (0x80)
Format : AC-3
Format/Info : Audio Coding 3
Duration : 2mn 14s
Channel(s) : 2 channels
Sampling rate : 48.0 KHz
Compression mode : Lossy
Language : English
Menu
Duration : 2mn 14s
00:00:00.000 : Chapter 1
List (Audio) : 0
General
Complete name : F:\FEDERAL_PROTECTION\VIDEO_TS\VTS_02_0.VOB

Format : MPEG-PS
File size : 154 KiB
Duration : 520ms
Overall bit rate : 2 426 Kbps
Video
ID : 224 (0xE0)
Format : MPEG Video
Format version : Version 2
Format profile : Main@Main
Format settings, BVOP : Yes
Format settings, Matrix : Custom
Duration : 520ms
Maximum bit rate : 2 000 Kbps
Width : 720 pixels
Height : 576 pixels
Display aspect ratio : 4:3
Frame rate : 25.000 fps
Standard : PAL
Color space : YUV
Chroma subsampling : 4:2:0
Bit depth : 8 bits
Scan type : Interlaced
Scan order : Top Field First
Compression mode : Lossy
Time code of first frame : 00:00:00:00
Time code source : Group of pictures header
Text
ID : 189 (0xBD)-32 (0x20)
Format : RLE
Format/Info : Run-length encoding
Muxing mode : DVD-Video
Delay relative to video : -80ms
Menu
General
Complete name : F:\FEDERAL_PROTECTION\VIDEO_TS\VTS_02_1.VOB

Format : MPEG-PS
File size : 101 MiB
Duration : 2mn 14s
Overall bit rate : 6 310 Kbps
Video
ID : 224 (0xE0)
Format : MPEG Video
Format version : Version 2
Format profile : Main@Main
Format settings, BVOP : Yes
Format settings, Matrix : Default
Format settings, GOP : M=5, N=26
Duration : 2mn 14s
Bit rate : 6 000 Kbps
Width : 720 pixels
Height : 576 pixels
Display aspect ratio : 4:3
Frame rate : 25.000 fps
Standard : PAL
Color space : YUV
Chroma subsampling : 4:2:0
Bit depth : 8 bits
Scan type : Interlaced
Scan order : Top Field First
Compression mode : Lossy
Bits/(Pixel*Frame) : 0.579
Time code of first frame : 01:00:00:00
Time code source : Group of pictures header
Stream size : 95.8 MiB (95%)
Color primaries : BT.601 PAL
Transfer characteristics : BT.470 System B, BT.470 System G
Matrix coefficients : BT.601
Audio
ID : 189 (0xBD)-128 (0x80)
Format : AC-3
Format/Info : Audio Coding 3
Mode extension : CM (complete main)
Format settings, Endianness : Big
Muxing mode : DVD-Video
Duration : 2mn 14s
Bit rate mode : Constant
Bit rate : 192 Kbps
Channel(s) : 2 channels
Channel positions : Front: L R
Sampling rate : 48.0 KHz
Bit depth : 16 bits
Compression mode : Lossy
Stream size : 3.07 MiB (3%)
Menu
Скриншоты менюСкриншотыСкриншоты доп. материалов

_________________
Показать сообщения:    

Текущее время: Сегодня 02:51

Часовой пояс: GMT



Вы не можете начинать темы
Вы не можете отвечать на сообщения
Вы не можете редактировать свои сообщения
Вы не можете удалять свои сообщения
Вы не можете голосовать в опросах
Вы не можете прикреплять файлы к сообщениям
Вы не можете скачивать файлы