Важное объявление!
У Нас Все раздачи мультитрекерные, при нуле пиров в релизах, можете смело вставать на закачку!
 
Автор Сообщение

HUNTER

Стаж:
4 года 7 месяцев
Сообщений:
61590

Репутация: 101

[+] [-]
Вне форума [Профиль] [ЛС]

Фауст / Faust - Eine deutsche Volkssage-
Год выпуска: 1926
Страна: Германия
Жанр: фэнтези, драма
Продолжительность: 01:47:20
Перевод: Субтитры
Оригинальная аудиодорожка: музыкальное сопровождение
Cубтитры: Русские (Aileen), английские, немецкие интертитры-Режиссер: Фридрих Вильгельм Мурнау / F.W. Murnau
В ролях: Геста Экман, Эмиль Яннингс, Камилла Хорн, Фрида Рихард, Уильям Дитерле, Иветт Гильбер, Эрик Барклай, Ханна Ральф, Вернер Фюттерер, Ганс Браузеветтер-Описание:
Поспорили архангел Михаил и Сатана: добро и зло — что сильнее? В центре пари высших сил — доктор Фауст, ученый старец, само благородство и воплощенное знание. Отчаявшись спасти свой город от чумы, он обращается-таки за помощью к темным силам, вызвав из Тьмы Сатану — и тот дарует ему чудесную силу…- | IMDb | Сэмпл-Качество: BDRip 720p (CtrlHD)
Контейнер: MKV
Видео: x264, 960x720 (1.33:1), 23.976 fps, 9970 kbps
Аудио 1: AС3, 2.0, 48 kHz, 448 kbps — Timothy Brock orchestral score
Аудио 2: AС3, 2.0, 48 kHz, 448 kbps— Stan Ambrose harp score
Аудио 3: AС3, 2.0, 48 kHz, 448 kbps — Javier Perez de Azpeitia piano score
Аудио 4: AС3, 2.0, 48 kHz, 192 kbps — Commentary
Формат субтитров: softsub (SRT)

Скриншоты

Source vs Encode


-

MI

nfo
.GENERAL iNFORMATiON
RUNTiME....... 1h:47m:20s
SiZE.......... 8.80GB
ViDEO.CODEC... x264, CRF18, L4.1
FRAMERATE..... 23.976 fps
BiTRATE....... 9970kbps
RESOLUTiON.... 960x720
AUDiO1........ DD 2.0 @ 448kbps (Timothy Brock orchestral score)
AUDiO2........ DD 2.0 @ 448kbps (Stan Ambrose harp score)
AUDiO3........ DD 2.0 @ 448kbps (Javier Perez de Azpeitia piano)
AUDiO4........ English DD 2.0 @ 192kbps (Commentary by David Ehrenstein & Bill Krohn)
SUBTiTLES..... English
SUBS.FORMAT... UTF-8 srt
CHAPTERS...... Numbered + Named
SOURCE........ Faust - Eine deutsche Volkssage 1926 1080p GBR Blu-ray AVC LPCM 2.0-ESiR (MOC)
iMDB.RATiNG... 8.0/10 (8,518 votes)
iMDB.LiNK..... http://www.imdb.com/title/tt0016847/
.LOG
x264 [info]: frame I:819 Avg QP:18.43 size: 99969
x264 [info]: frame P:23314 Avg QP:19.59 size: 67987
x264 [info]: frame B:130273 Avg QP:20.26 size: 50287
x264 [info]: consecutive B-frames: 1.7% 0.4% 1.3% 7.0% 14.2% 22.1% 7.1% 1.4% 3.4% 2.8% 6.2% 12.3% 19.8% 0.2%
x264 [info]: encoded 154406 frames, 2.98 fps, 10208.56 kb/s, duration 14:24:03.22
General
Unique ID : 246738917368347344324335718859957406663 (0xB9A02FDB55CC6F7B920515BB3CB90BC7)
Complete name : Faust - Eine deutsche Volkssage 1926 720p BluRay DD2.0 x264-CtrlHD.mkv
Format : Matroska
Format version : Version 2
File size : 8.80 GiB
Duration : 1h 47mn
Overall bit rate : 11.7 Mbps
Movie name : Faust - Eine deutsche Volkssage / Фауст (1926) – RuTracker
Encoded date : UTC 2014-08-26 15:49:49
Writing application : mkvmerge v7.0.0 ('Where We Going') 64bit built on Jun 9 2014 15:16:27
Writing library : libebml v1.3.0 + libmatroska v1.4.1
Attachment : Yes
Video
ID : 1
Format : AVC
Format/Info : Advanced Video Codec
Format profile : High@L4.1
Format settings, CABAC : Yes
Format settings, ReFrames : 12 frames
Codec ID : V_MPEG4/ISO/AVC
Duration : 1h 47mn
Bit rate : 9 971 Kbps
Width : 960 pixels
Height : 720 pixels
Display aspect ratio : 4:3
Frame rate mode : Constant
Frame rate : 23.976 fps
Color space : YUV
Chroma subsampling : 4:2:0
Bit depth : 8 bits
Scan type : Progressive
Bits/(Pixel*Frame) : 0.602
Stream size : 7.48 GiB (85%)
Title : Faust - Eine deutsche Volkssage 1926 720p BluRay DD2.0 x264-CtrlHD
Writing library : x264 core 142 r2453kMod ea0ca51
Encoding settings : cabac=1 / ref=12 / deblock=1:-3:-3 / analyse=0x3:0x133 / me=umh / subme=10 / psy=1 / fade_compensate=0.00 / psy_rd=1.15:0.00 / mixed_ref=1 / me_range=32 / chroma_me=1 / trellis=2 / 8x8dct=1 / cqm=0 / deadzone=21,11 / fast_pskip=0 / chroma_qp_offset=-2 / threads=6 / lookahead_threads=1 / sliced_threads=0 / nr=0 / decimate=0 / interlaced=0 / bluray_compat=0 / constrained_intra=0 / fgo=0 / bframes=13 / b_pyramid=2 / b_adapt=2 / b_bias=0 / direct=3 / weightb=1 / open_gop=0 / weightp=2 / keyint=250 / keyint_min=23 / scenecut=40 / intra_refresh=0 / rc_lookahead=60 / rc=crf / mbtree=0 / crf=18.0000 / qcomp=0.70 / qpmin=0 / qpmax=69 / qpstep=4 / vbv_maxrate=50000 / vbv_bufsize=62500 / crf_max=0.0 / nal_hrd=none / filler=0 / ip_ratio=1.20 / pb_ratio=1.10 / aq=1:0.50
Language : English
Default : Yes
Forced : No
Audio #1
ID : 2
Format : AC-3
Format/Info : Audio Coding 3
Mode extension : CM (complete main)
Format settings, Endianness : Big
Codec ID : A_AC3
Duration : 1h 47mn
Bit rate mode : Constant
Bit rate : 448 Kbps
Channel(s) : 2 channels
Channel positions : Front: L R
Sampling rate : 48.0 KHz
Bit depth : 16 bits
Compression mode : Lossy
Stream size : 344 MiB (4%)
Title : Timothy Brock orchestral score
Default : Yes
Forced : No
Audio #2
ID : 3
Format : AC-3
Format/Info : Audio Coding 3
Mode extension : CM (complete main)
Format settings, Endianness : Big
Codec ID : A_AC3
Duration : 1h 47mn
Bit rate mode : Constant
Bit rate : 448 Kbps
Channel(s) : 2 channels
Channel positions : Front: L R
Sampling rate : 48.0 KHz
Bit depth : 16 bits
Compression mode : Lossy
Stream size : 344 MiB (4%)
Title : Stan Ambrose harp score
Default : No
Forced : No
Audio #3
ID : 4
Format : AC-3
Format/Info : Audio Coding 3
Mode extension : CM (complete main)
Format settings, Endianness : Big
Codec ID : A_AC3
Duration : 1h 47mn
Bit rate mode : Constant
Bit rate : 448 Kbps
Channel(s) : 2 channels
Channel positions : Front: L R
Sampling rate : 48.0 KHz
Bit depth : 16 bits
Compression mode : Lossy
Stream size : 344 MiB (4%)
Title : Javier Perez de Azpeitia piano score
Default : No
Forced : No
Audio #4
ID : 5
Format : AC-3
Format/Info : Audio Coding 3
Mode extension : CM (complete main)
Format settings, Endianness : Big
Codec ID : A_AC3
Duration : 1h 47mn
Bit rate mode : Constant
Bit rate : 192 Kbps
Channel(s) : 2 channels
Channel positions : Front: L R
Sampling rate : 48.0 KHz
Bit depth : 16 bits
Compression mode : Lossy
Stream size : 147 MiB (2%)
Title : Commentary by critics David Ehrenstein and Bill Krohn
Language : English
Default : No
Forced : No
Text #1
ID : 6
Format : UTF-8
Codec ID : S_TEXT/UTF8
Codec ID/Info : UTF-8 Plain Text
Title : Aileen
Language : Russian
Default : Yes
Forced : No
Text #2
ID : 7
Format : UTF-8
Codec ID : S_TEXT/UTF8
Codec ID/Info : UTF-8 Plain Text
Language : English
Default : No
Forced : No
Menu
00:00:00.000 : en:01. Forces of Good & Evil
00:04:36.359 : en:02. Wager with God
00:06:54.623 : en:03. Plague
00:11:47.290 : en:04. Death Sweeps the Town
00:17:42.770 : en:05. Invoke the Spirit of Darkness
00:19:52.525 : en:06. Mephisto Appears
00:23:26.739 : en:07. Power to Help
00:27:13.799 : en:08. Pact with the Devil
00:32:22.691 : en:09. Death or Youth
00:35:22.037 : en:10. The Journey
00:38:15.460 : en:11. Wedding Feast
00:41:47.088 : en:12. Eternal Pact
00:46:24.365 : en:13. Faust Returns Home
00:52:47.706 : en:14. The Devil's Power
01:00:19.324 : en:15. Gretchen & Aunt Marthe
01:04:59.604 : en:16. Necklace for Marthe
01:12:09.200 : en:17. Love's Fire
01:15:59.764 : en:18. Cursed Matchmaker
01:25:14.151 : en:19. Requiem
01:27:25.407 : en:20. Stocks
01:33:41.032 : en:21. Mercy on My Child
01:36:40.461 : en:22. Betrayal
01:44:35.352 : en:23. The Word

_________________
Показать сообщения:    

Текущее время: Сегодня 05:34

Часовой пояс: GMT



Вы не можете начинать темы
Вы не можете отвечать на сообщения
Вы не можете редактировать свои сообщения
Вы не можете удалять свои сообщения
Вы не можете голосовать в опросах
Вы не можете прикреплять файлы к сообщениям
Вы не можете скачивать файлы
Наши партнеры: интернет магазин Ивановского трикотажа textilla.ru