Ивановский Торрент трекер
Яндекс.Погода
 

[Цитировать]
HUNTER

-ФАР КРАЙ / FAR CRY-
Год выпуска: 2008
Страна: Германия, Канада
Жанр: боевик, приключения
Продолжительность: 1:34:41
Перевод: Профессиональный (многоголосый, закадровый)
Субтитры: Нет-Режиссёр: Уве Болл / Uwe Boll
В ролях: Тиль Швайгер, Эммануэль Вожье, Натали Авелон, Удо Кир, Крис Коппола, Ральф Мёллер, Крэйг Фэйрбрасс, Майкл Паре, Дон С. Дэвис, Сюзанн Ристич, Джей Бразо, Майк Допуд, Стеффен Меннекс, Майкл Робинсон, Кэрри Гензел, Майкл Роджерс, Джофф Густафссон, Джэми Свитч, James Michalopolous, Скотт Купер, Аарон Перл, Риз Александр, Адриан Холмс, Ричард Фараси, Майкл Тиган, Майкл Беняер, Питер Кент, Д. Хэрлан Катшелл, Мишель Кук, Тайрон Лейтсо, Энтони Бурден, Томас Хэнли, Kirk McMeekan, Craig Skistimas, Гарет Фон Калленбах-Описание:-Джек Карвер оказывается на тропическом острове после того, как его катер потерпел крушение во время шторма. На небольшом кусочке суши много секретных объектов, которые используются коварным профессором для выведения супер-мутантов. Главному герою придется столкнуться лицом к лицу со смертью и избавиться от головорезов злобного ученого, которые очень хотят вырваться на свободу.-Качество: BDRip-AVC
Формат: MKV
Видео кодек: AVC
Аудио кодек: AC3
Видео: MPEG-4 AVC, 2 986 Кбит/с, 1152x480 23.976 fps
Аудио: Русский (АС3, 6 ch, 448 Кбит/с) 48,0 КГц
Автор рипа: OMEGA

СЭМПЛ

Рейтинг

Рейтинг:

MI

General
Unique ID : 243175302073622465953527618090338661891 (0xB6F1DC0EBD329284A1FF9E27ED98B603)
Complete name : G:\Новая папка\Far.Cry.2008.1080p.BDRip-AVC.mkv
Format : Matroska
Format version : Version 2
File size : 2.27 GiB
Duration : 1h 34mn
Overall bit rate : 3 434 Kbps
Encoded date : UTC 2013-09-28 14:42:55
Writing application : mkvmerge v4.9.1 ('Ich will') built on Sep 21 2011 17:48:11
Writing library : libebml v1.2.1 + libmatroska v1.2.0
Video
ID : 1
Format : AVC
Format/Info : Advanced Video Codec
Format profile : High@L3.1
Format settings, CABAC : Yes
Format settings, ReFrames : 4 frames
Codec ID : V_MPEG4/ISO/AVC
Duration : 1h 34mn
Bit rate : 2 986 Kbps
Width : 1 152 pixels
Height : 480 pixels
Display aspect ratio : 2.40:1
Frame rate mode : Constant
Frame rate : 23.976 fps
Color space : YUV
Chroma subsampling : 4:2:0
Bit depth : 8 bits
Scan type : Progressive
Bits/(Pixel*Frame) : 0.225
Stream size : 1.93 GiB (85%)
Writing library : x264 core 118 r2085 8a62835
Encoding settings : cabac=1 / ref=3 / deblock=1:0:0 / analyse=0x3:0x113 / me=hex / subme=7 / psy=1 / psy_rd=1.00:0.00 / mixed_ref=1 / me_range=16 / chroma_me=1 / trellis=1 / 8x8dct=1 / cqm=0 / deadzone=21,11 / fast_pskip=1 / chroma_qp_offset=-2 / threads=18 / sliced_threads=0 / nr=0 / decimate=1 / interlaced=0 / bluray_compat=0 / constrained_intra=0 / bframes=3 / b_pyramid=2 / b_adapt=1 / b_bias=0 / direct=3 / weightb=1 / open_gop=0 / weightp=2 / keyint=250 / keyint_min=23 / scenecut=40 / intra_refresh=0 / rc_lookahead=40 / rc=2pass / mbtree=1 / bitrate=2986 / ratetol=1.0 / qcomp=0.60 / qpmin=0 / qpmax=69 / qpstep=4 / cplxblur=20.0 / qblur=0.5 / ip_ratio=1.40 / aq=1:1.00
Default : Yes
Forced : No
Audio
ID : 2
Format : AC-3
Format/Info : Audio Coding 3
Mode extension : CM (complete main)
Format settings, Endianness : Big
Codec ID : A_AC3
Duration : 1h 34mn
Bit rate mode : Constant
Bit rate : 448 Kbps
Channel(s) : 6 channels
Channel positions : Front: L C R, Side: L R, LFE
Sampling rate : 48.0 KHz
Bit depth : 16 bits
Compression mode : Lossy
Stream size : 303 MiB (13%)
Default : Yes
Forced : No

Скриншоты

- -


Показать сообщения:    

Текущее время: 13-Дек 15:20

Часовой пояс: UTC ± 0


Вы не можете начинать темы
Вы не можете отвечать на сообщения
Вы не можете редактировать свои сообщения
Вы не можете удалять свои сообщения
Вы не можете голосовать в опросах
Вы не можете прикреплять файлы к сообщениям
Вы не можете скачивать файлы

!ВНИМАНИЕ!
Сайт не предоставляет электронные версии произведений, а занимается лишь коллекционированием и каталогизацией ссылок, присылаемых и публикуемых на форуме нашими читателями. Если вы являетесь правообладателем какого-либо представленного материала и не желаете, чтобы ссылка на него находилась в нашем каталоге, свяжитесь с нами, и мы незамедлительно удалим ее. Файлы для обмена на трекере предоставлены пользователями сайта, и администрация не несет ответственности за их содержание. Просьба не заливать файлы, защищенные авторскими правами, а также файлы нелегального содержания!