Важное объявление!
У Нас Все раздачи мультитрекерные, при нуле пиров в релизах, можете смело вставать на закачку!
Статистика раздачи
Размер:     |    Зарегистрирован:     |    Скачан:     |   
Нет
 
     
 
 
Автор Сообщение

димитри37

Стаж:
4 года 4 месяца
Сообщений:
1236

Репутация: 127

[+] [-]
Вне форума [Профиль] [ЛС]

Фантом / Phantom
Название: Фантом
Оригинальное название: Phantom
Год выпуска: 2013
Выпущено: США / RCR Media Group
Жанр: триллер
Продолжительность: 01:38:28
Перевод: Одноголосый закадровый den904
Cубтитры: английские
Формат субтитров: softsub (SRT)
Оригинальная аудиодорожка: английский
Режиссер: Тодд Робинсон / Todd Robinson
В ролях: Эд Харрис (Demi), Дэвид Духовны (Bruni), Уильям Фихтнер (Alex), Лэнс Хенриксен (Markov), Джонатон Шек (Pavlov), Джейсон Бех (Semak), Дагмара Доминчук (Sophi), Дерек Магияр (Garin), Шон Патрик Флэнери (Tyrtov), Джейсон Грей-Стенфорд (Sasha), Джулиан Адамс (Bavenod)
Описание: Капитан советской подводной лодки держит в своих руках судьбу всего мира. Вынужденному покинуть свою семью, ему приходится возглавить секретную миссию окутанную тайной…

Качество видео: BDRip-AVC
Формат видео: MKV
Видео: H.264, 1080x460 (2.35:1), 23,976 fps, 2281 Кbps, 0.191 bit/pixel
Аудио#1: 48 kHz, AC3 Dolby Digital, 3/2 (L,C,R,l,r) + LFE ch, 448.00 kbps | RUS
Аудио#2: 48 kHz, AC3 Dolby Digital, 3/2 (L,C,R,l,r) + LFE ch, 448.00 kbps | ENG

MediaInfo

Общее
Уникальный идентификатор : 174547241488004982971652984775067977915 (0x8350936EC8F135248B54B3365FB648BB)
Полное имя : Fantom.2013.BDRip.x264.potroks.mkv
Формат : Matroska
Версия формата : Version 4 / Version 2
Размер файла : 2,19 Гбайт
Продолжительность : 1 ч. 38 м.
Общий поток : 3178 Кбит/сек
Название фильма : -=POTROKS=-
Дата кодирования : UTC 2013-06-17 17:44:38
Программа кодирования : mkvmerge v5.9.0 ('On The Loose') built on Dec 15 2012 16:39:58
Библиотека кодирования : libebml v1.3.0 + libmatroska v1.4.0
Видео
Идентификатор : 1
Формат : AVC
Формат/Информация : Advanced Video Codec
Профиль формата : High@L4.1
Параметр CABAC формата : Да
Параметр ReFrames формата : 9 кадров
Идентификатор кодека : V_MPEG4/ISO/AVC
Продолжительность : 1 ч. 38 м.
Битрейт : 2281 Кбит/сек
Ширина : 1080 пикселей
Высота : 460 пикселей
Соотношение сторон : 2,35:1
Режим частоты кадров : Постоянный
Частота кадров : 23,976 кадра/сек
Цветовое пространство : YUV
Субдискретизация насыщенности : 4:2:0
Битовая глубина : 8 бит
Тип развёртки : Прогрессивная
Бит/(Пиксели*Кадры) : 0.191
Размер потока : 1,53 Гбайт (70%)
Заголовок : Fantom
Библиотека кодирования : x264 core 125 r2208 d9d2288
Настройки программы : cabac=1 / ref=9 / deblock=1:-3:-2 / analyse=0x3:0x133 / me=umh / subme=11 / psy=1 / psy_rd=1.04:0.00 / mixed_ref=1 / me_range=32 / chroma_me=1 / trellis=2 / 8x8dct=1 / cqm=0 / deadzone=21,11 / fast_pskip=0 / chroma_qp_offset=-2 / threads=9 / lookahead_threads=1 / sliced_threads=0 / nr=0 / decimate=1 / interlaced=0 / bluray_compat=0 / constrained_intra=0 / bframes=10 / b_pyramid=2 / b_adapt=2 / b_bias=0 / direct=3 / weightb=1 / open_gop=0 / weightp=2 / keyint=240 / keyint_min=23 / scenecut=40 / intra_refresh=0 / rc_lookahead=125 / rc=2pass / mbtree=1 / bitrate=2281 / ratetol=1.0 / qcomp=0.70 / qpmin=0 / qpmax=69 / qpstep=4 / cplxblur=20.0 / qblur=0.5 / vbv_maxrate=20000 / vbv_bufsize=20000 / nal_hrd=none / ip_ratio=1.35 / aq=1:0.70
Язык : English
Default : Да
Forced : Нет
Аудио #1
Идентификатор : 2
Формат : AC-3
Формат/Информация : Audio Coding 3
Расширение режима : CM (complete main)
Параметр Endianness формата : Big
Идентификатор кодека : A_AC3
Продолжительность : 1 ч. 38 м.
Вид битрейта : Постоянный
Битрейт : 448 Кбит/сек
Каналы : 6 каналов
Расположение каналов : Front: L C R, Side: L R, LFE
Частота : 48,0 КГц
Битовая глубина : 16 бит
Метод сжатия : С потерями
Размер потока : 316 Мбайт (14%)
Заголовок : VO | DD 5.1 @ 448 kbps - den904
Язык : Russian
Default : Да
Forced : Да
Аудио #2
Идентификатор : 3
Формат : AC-3
Формат/Информация : Audio Coding 3
Расширение режима : CM (complete main)
Параметр Endianness формата : Big
Идентификатор кодека : A_AC3
Продолжительность : 1 ч. 38 м.
Вид битрейта : Постоянный
Битрейт : 448 Кбит/сек
Каналы : 6 каналов
Расположение каналов : Front: L C R, Side: L R, LFE
Частота : 48,0 КГц
Битовая глубина : 16 бит
Метод сжатия : С потерями
Размер потока : 316 Мбайт (14%)
Заголовок : Original | DD 5.1 @ 448 kbps
Язык : English
Default : Нет
Forced : Нет
Текст
Идентификатор : 4
Формат : UTF-8
Идентификатор кодека : S_TEXT/UTF8
Идентификатор кодека/Информация : UTF-8 Plain Text
Язык : English
Default : Нет
Forced : Нет

log@x.264

x264 [info]: frame I:1188 Avg QP:17.57 size: 55580
x264 [info]: frame P:27512 Avg QP:19.03 size: 22912
x264 [info]: frame B:112972 Avg QP:20.94 size: 8745
x264 [info]: consecutive B-frames: 1.6% 1.1% 3.3% 17.2% 17.3% 40.9% 8.1% 8.7% 1.2% 0.2% 0.3%
x264 [info]: mb I I16..4: 11.5% 71.2% 17.3%
x264 [info]: mb P I16..4: 0.7% 5.0% 0.7% P16..4: 30.7% 39.1% 14.6% 2.3% 0.2% skip: 6.7%
x264 [info]: mb B I16..4: 0.0% 0.3% 0.1% B16..8: 40.2% 20.1% 3.7% direct: 4.8% skip:30.7% L0:44.1% L1:48.4% BI: 7.5%
x264 [info]: 8x8 transform intra:75.9% inter:60.7%
x264 [info]: direct mvs spatial:97.5% temporal:2.5%
x264 [info]: coded y,uvDC,uvAC intra: 85.1% 77.8% 57.8% inter: 27.3% 22.3% 4.9%
x264 [info]: i16 v,h,dc,p: 36% 19% 5% 41%
x264 [info]: i8 v,h,dc,ddl,ddr,vr,hd,vl,hu: 6% 6% 5% 12% 17% 15% 15% 12% 12%
x264 [info]: i4 v,h,dc,ddl,ddr,vr,hd,vl,hu: 8% 6% 6% 11% 17% 14% 14% 11% 13%
x264 [info]: i8c dc,h,v,p: 45% 21% 16% 18%
x264 [info]: Weighted P-Frames: Y:5.2% UV:1.7%
x264 [info]: ref P L0: 43.4% 8.2% 19.5% 7.9% 6.6% 4.8% 4.3% 2.5% 2.5% 0.3% 0.0%
x264 [info]: ref B L0: 69.4% 13.5% 7.1% 3.5% 2.9% 2.1% 1.1% 0.4%
x264 [info]: ref B L1: 91.0% 9.0%
x264 [info]: kb/s:2280.30
x264 [total]: encoded 141672 frames, 6.29 fps, 2280.30 kb/s
TIME
------------------------------
Общее время кодирования: 8 hour 44 min 41 sec
Файл получился на: 1607.26 mb
-

bot

Вне форума [Профиль] [ЛС]

Топик был перенесен из форума Документальные фильмы, Научно-познавательные фильмы в форум Новые релизы
димитри37
 
Показать сообщения:    

Текущее время: Сегодня 18:31

Часовой пояс: GMT



Вы не можете начинать темы
Вы не можете отвечать на сообщения
Вы не можете редактировать свои сообщения
Вы не можете удалять свои сообщения
Вы не можете голосовать в опросах
Вы не можете прикреплять файлы к сообщениям
Вы не можете скачивать файлы