Важное объявление!
У Нас Все раздачи мультитрекерные, при нуле пиров в релизах, можете смело вставать на закачку!
Статистика раздачи
Размер:     |    Зарегистрирован:     |    Скачан:     |   
Нет
 
     
 
 
Автор Сообщение

димитри37

Стаж:
4 года 5 месяцев
Сообщений:
1236

Репутация: 127

[+] [-]
Вне форума [Профиль] [ЛС]

Фантом / Phantom
Название: Фантом
Оригинальное название: Phantom
Год выпуска: 2013
Выпущено: США / RCR Media Group
Жанр: триллер
Продолжительность: 01:38:28
Перевод: Одноголосый закадровый |den904|
Cубтитры: нет
Режиссер: Тодд Робинсон / Todd Robinson
В ролях: Эд Харрис (Demi), Дэвид Духовны (Bruni), Уильям Фихтнер (Alex), Лэнс Хенриксен (Markov), Джонатон Шек (Pavlov), Джейсон Бех (Semak), Дагмара Доминчук (Sophi), Дерек Магияр (Garin), Шон Патрик Флэнери (Tyrtov), Джейсон Грей-Стенфорд (Sasha), Джулиан Адамс (Bavenod)
Описание: Капитан советской подводной лодки держит в своих руках судьбу всего мира. Вынужденному покинуть свою семью, ему приходится возглавить секретную миссию окутанную тайной…

Качество: BDRip
Формат: AVI
Видео: 672x288 (2.33:1), 23.976 fps, XviD build 73 ~919 kbps avg, 0.20 bit/pixel
Аудио: 48 kHz, MPEG Layer 3, 2 ch, ~128.00 kbps avg
Видео кодек: XviD build 73
Аудио кодек: MPEG Layer

Скриншоты

MediaInfo

Код:
General
Complete name                            : D:\Phantom_2013_BDRip_745_VO_by_Dalemake.avi
Format                                   : AVI
Format/Info                              : Audio Video Interleave
File size                                : 745 MiB
Duration                                 : 1h 38mn
Overall bit rate                         : 1 057 Kbps
Writing application                      : VirtualDubMod 1.5.10.3 | www.virtualdub-fr.org || (build 2550/release)
Writing library                          : VirtualDubMod build 2550/release
Video
ID                                       : 0
Format                                   : MPEG-4 Visual
Format profile                           : Advanced Simple@L5
Format settings, BVOP                    : 1
Format settings, QPel                    : No
Format settings, GMC                     : No warppoints
Format settings, Matrix                  : Custom
Codec ID                                 : XVID
Codec ID/Hint                            : XviD
Duration                                 : 1h 38mn
Bit rate                                 : 920 Kbps
Width                                    : 672 pixels
Height                                   : 288 pixels
Display aspect ratio                     : 2.35:1
Frame rate                               : 23.976 fps
Color space                              : YUV
Chroma subsampling                       : 4:2:0
Bit depth                                : 8 bits
Scan type                                : Progressive
Compression mode                         : Lossy
Bits/(Pixel*Frame)                       : 0.198
Stream size                              : 648 MiB (87%)
Writing library                          : XviD 73
Audio
ID                                       : 1
Format                                   : MPEG Audio
Format version                           : Version 1
Format profile                           : Layer 3
Codec ID                                 : 55
Codec ID/Hint                            : MP3
Duration                                 : 1h 38mn
Bit rate mode                            : Constant
Bit rate                                 : 128 Kbps
Channel(s)                               : 2 channels
Sampling rate                            : 48.0 KHz
Compression mode                         : Lossy
Stream size                              : 90.2 MiB (12%)
Alignment                                : Aligned on interleaves
Interleave, duration                     : 42 ms (1.00 video frame)
Interleave, preload duration             : 504 ms
Writing library                          : LAME3.99r
Encoding settings                        : -m s -V 4 -q 2 -lowpass 17 -b 128

bot

Вне форума [Профиль] [ЛС]

Топик был перенесен из форума Новые релизы в форум Новые релизы
димитри37
 
Показать сообщения:    

Текущее время: Сегодня 01:30

Часовой пояс: GMT



Вы не можете начинать темы
Вы не можете отвечать на сообщения
Вы не можете редактировать свои сообщения
Вы не можете удалять свои сообщения
Вы не можете голосовать в опросах
Вы не можете прикреплять файлы к сообщениям
Вы не можете скачивать файлы