Ивановский Торрент трекер
Яндекс.Погода
 

[Цитировать]
HUNTER

У Адама было четыре сына / Adam Had Four Sons- Год выпуска: 1941
Страна: США
Жанр: драма, мелодрама
Продолжительность: 01:20:05
Перевод: Одноголосый закадровый — fiendover (Виктор Рутилов)
Оригинальная аудиодорожка: Английская
Cубтитры: Английские-Режиссер: Грегори Ратофф / Gregory Ratoff
В ролях: Ингрид Бергман, Уорнер Бакстер, Сьюзен Хэйуорд, Фэй Рэй, Ричард Деннинг, Джонни Даунс, Роберт Шоу, Чарльз Линд, Билли Рэй, Стивен Мюллер-Описание:
В этом классическом фильме есть всё: любовь, обольщение, предательство, слёзы и смех. В начале 1905 года семья Стоддардов нанимает французскую гувернантку Эмили (Ингрид Бергман), поскольку сами не справляются с воспитанием своих четырех сыновей. Дети привязываются к Эмили, но вскоре глава семьи (Уорнер Бакстер) остается вдовцом, а следом и банкротом. Они вынуждены расстаться с Эмили. Прошло семь лет, Адам вновь наладил свои финансовые дела и просит Эмили вернуться и продолжить свою работу. А дети уже подросли и старшие сыновья успели побывать на войне. Один из них вернулся с фронта с молодой женой (Сьюзан Хэйворд) и вот тут начались проблемы, и очень большие проблемы.-За появление перевода огромная благодарность: Магда, елена 22, Nmaska, jasenka, mumzik69, master-pepper, surzhoks, Wrobel, Бурый Иван, Ugo927, mit198282, lafajet, sashkaelectric, duum100, eagle64, palmeiras
| | Сэмпл-Качество: WEB-DL 1080p (SbR)
Контейнер: MKV
Видео: AVC (x264), 1920x1080 (1.33:1), 23.976 fps, 14704 kbps
Аудио 1: Русский AC3 2.0, 48 kHz, 192 kbps
Аудио 2: Английский EAC3 2.0, 48 kHz, 224 kbps

Скриншоты


MI

General
Unique ID : 212481048656372211848946392894772901563 (0x9FDA5C862A7FA4E99D5C78DA440476BB)
Complete name : Adam.Had.Four.Sons.1941.1080p.WEB-DL.DD2.0.H.264-SbR.mkv
Format : Matroska
Format version : Version 2
File size : 8.46 GiB
Duration : 1 h 20 min
Overall bit rate mode : Variable
Overall bit rate : 15.1 Mb/s
Movie name : Adam Had Four Sons / У Адама было четыре сына (1941) – RuTracker
Encoded date : UTC 2016-10-16 19:36:56
Writing application : mkvmerge v9.4.2 ('So High') 64bit
Writing library : libebml v1.3.4 + libmatroska v1.4.5
Cover : Yes
Attachments : cover.jpg
Video
ID : 1
Format : AVC
Format/Info : Advanced Video Codec
Format profile : High@L4
Format settings, CABAC : Yes
Format settings, ReFrames : 4 frames
Codec ID : V_MPEG4/ISO/AVC
Duration : 1 h 20 min
Bit rate mode : Variable
Bit rate : 14.4 Mb/s
Maximum bit rate : 15.0 Mb/s
Width : 1 920 pixels
Height : 1 080 pixels
Display aspect ratio : 16:9
Frame rate mode : Constant
Frame rate : 23.976 (24000/1001) FPS
Color space : YUV
Chroma subsampling : 4:2:0
Bit depth : 8 bits
Scan type : Progressive
Bits/(Pixel*Frame) : 0.290
Stream size : 8.06 GiB (95%)
Title : Adam.Had.Four.Sons.1941.1080p.WEB-DL.DD+2.0.H.264-SbR
Writing library : x264 core 148 r2623 d5b2374
Encoding settings : cabac=1 / ref=4 / deblock=1:-1:-1 / analyse=0x3:0x133 / me=umh / subme=9 / psy=1 / psy_rd=1.00:0.15 / mixed_ref=1 / me_range=24 / chroma_me=1 / trellis=2 / 8x8dct=1 / cqm=0 / deadzone=21,11 / fast_pskip=1 / chroma_qp_offset=-3 / threads=34 / lookahead_threads=5 / sliced_threads=0 / nr=150 / decimate=1 / interlaced=0 / bluray_compat=0 / constrained_intra=0 / bframes=8 / b_pyramid=2 / b_adapt=2 / b_bias=0 / direct=3 / weightb=1 / open_gop=0 / weightp=2 / keyint=120 / keyint_min=61 / scenecut=0 / intra_refresh=0 / rc_lookahead=120 / rc=crf / mbtree=1 / crf=18.0 / qcomp=0.60 / qpmin=0 / qpmax=69 / qpstep=4 / vbv_maxrate=15000 / vbv_bufsize=31250 / crf_max=0.0 / nal_hrd=vbr / filler=0 / ip_ratio=1.40 / aq=3:1.00
Language : English
Default : Yes
Forced : No
Color range : Limited
Color primaries : BT.709
Transfer characteristics : BT.709
Matrix coefficients : BT.709
Audio #1
ID : 2
Format : AC-3
Format/Info : Audio Coding 3
Mode extension : CM (complete main)
Format settings, Endianness : Big
Codec ID : A_AC3
Duration : 1 h 20 min
Bit rate mode : Constant
Bit rate : 192 kb/s
Channel(s) : 2 channels
Channel positions : Front: L R
Sampling rate : 48.0 kHz
Frame rate : 31.250 FPS (1536 spf)
Compression mode : Lossy
Stream size : 110 MiB (1%)
Title : VO – fiendover (В.Рутилов)
Language : Russian
Default : Yes
Forced : No
Audio #2
ID : 3
Format : E-AC-3
Format/Info : Audio Coding 3
Format settings, Endianness : Big
Codec ID : A_EAC3
Duration : 1 h 20 min
Bit rate mode : Constant
Bit rate : 224 kb/s
Channel(s) : 2 channels
Channel positions : Front: L R
Sampling rate : 48.0 kHz
Frame rate : 187.500 FPS (256 spf)
Compression mode : Lossy
Stream size : 128 MiB (1%)
Title : Original
Language : English
Default : No
Forced : No
Text #1
ID : 4
Format : UTF-8
Codec ID : S_TEXT/UTF8
Codec ID/Info : UTF-8 Plain Text
Language : English
Default : No
Forced : No
Text #2
ID : 5
Format : UTF-8
Codec ID : S_TEXT/UTF8
Codec ID/Info : UTF-8 Plain Text
Title : SDH
Language : English
Default : No
Forced : No


Показать сообщения:    

Текущее время: 18-Дек 07:20

Часовой пояс: UTC ± 0


Вы не можете начинать темы
Вы не можете отвечать на сообщения
Вы не можете редактировать свои сообщения
Вы не можете удалять свои сообщения
Вы не можете голосовать в опросах
Вы не можете прикреплять файлы к сообщениям
Вы не можете скачивать файлы

!ВНИМАНИЕ!
Сайт не предоставляет электронные версии произведений, а занимается лишь коллекционированием и каталогизацией ссылок, присылаемых и публикуемых на форуме нашими читателями. Если вы являетесь правообладателем какого-либо представленного материала и не желаете, чтобы ссылка на него находилась в нашем каталоге, свяжитесь с нами, и мы незамедлительно удалим ее. Файлы для обмена на трекере предоставлены пользователями сайта, и администрация не несет ответственности за их содержание. Просьба не заливать файлы, защищенные авторскими правами, а также файлы нелегального содержания!