Важное объявление!
У Нас Все раздачи мультитрекерные, при нуле пиров в релизах, можете смело вставать на закачку!
Статистика раздачи
Размер:     |    Зарегистрирован:     |    Скачан:     |   
Нет
 
     
 
 
Автор Сообщение

HUNTER

Стаж:
5 лет 1 месяц
Сообщений:
68449

Репутация: 101

[+] [-]
Вне форума [Профиль] [ЛС]

Ушко иголки / Eye of the Needle
Страна: Великобритания
Жанр: триллер, мелодрама, военный
Год выпуска: 1981
Продолжительность: 01:51:41
Перевод: Профессиональный (двухголосый закадровый) HTB+
Cубтитры: английские (Full, SDH)
Оригинальная аудиодорожка: английский-Режиссер: Ричард Маркуэнд / Richard Marquand-В ролях: Дональд Сазерленд, Стивен МакКенна, Филип Мартин Браун, Кейт Неллиган, Кристофер Кейзнов, Джордж Бэлбин, Фэйт Брук, Барбара Грали, Джордж Ли, Артур Лавгроув-Описание: Англия. Вторая мировая война. Люси – обычная неприметная домохозяйка. Она живет на маленьком безлюдном острове. Однажды, после сильного шторма она находит на берегу еле живого, но чертовски привлекательного мужчину.-Релиз:
by delia-Качество видео: BDRip | Рип от SbR
Формат видео: MKV
Видео: 1280x694 at 23.976 fps, x264@L4.1, ~11312 kbps avg
Аудио 1: Russian: 48 kHz, AC3, 2/0 (L,R) ch, ~192 kbps avg |Двухголосый закадровый, HTB+|
Аудио 2: English: 48 kHz, FLAC 2.0, ~385 kbps avg
Аудио 3: English: 48 kHz, AAC, 2/0 (L,R) ch, ~61 kbps avg |Commentary|-Скачать сэмпл-
Код:
Сохранены оригинальные главы как на Blu-ray.

MediaInfo

Код:
Формат                                   : Matroska
Версия формата                           : Version 4 / Version 2
Размер файла                             : 9,33 Гбайт
Продолжительность                        : 1 ч. 51 м.
Режим общего битрейта                    : Переменный
Общий поток                              : 12,0 Мбит/сек
Дата кодирования                         : UTC 2016-10-10 18:32:57
Программа кодирования                    : mkvmerge v9.4.2 ('So High') 64bit
Библиотека кодирования                   : libebml v1.3.4 + libmatroska v1.4.5
Обложка                                  : Yes
Attachments                              : cover.jpg
Видео
Идентификатор                            : 1
Формат                                   : AVC
Формат/Информация                        : Advanced Video Codec
Профиль формата                          : High@L4.1
Параметр CABAC формата                   : Да
Параметр ReFrames формата                : 9 кадров
Идентификатор кодека                     : V_MPEG4/ISO/AVC
Продолжительность                        : 1 ч. 51 м.
Битрейт                                  : 11,3 Мбит/сек
Ширина                                   : 1280 пикселей
Высота                                   : 694 пикселя
Соотношение сторон                       : 1,85:1
Режим частоты кадров                     : Постоянный
Частота кадров                           : 23,976 (23976/1000) кадра/сек
Цветовое пространство                    : YUV
Субдискретизация насыщенности            : 4:2:0
Битовая глубина                          : 8 бит
Тип развёртки                            : Прогрессивная
Бит/(Пиксели*Кадры)                      : 0.531
Размер потока                            : 8,83 Гбайт (95%)
Библиотека кодирования                   : x264 core 148 r2705+54 9f484c1 t_mod_Custom [8-bit@all X86_64]
Настройки программы                      : cabac=1 / ref=9 / deblock=1:-3:-3 / analyse=0x3:0x133 / me=umh / subme=10 / psy=1 / fade_compensate=0.00 / psy_rd=1.05:0.05 / mixed_ref=1 / me_range=24 / chroma_me=1 / trellis=2 / 8x8dct=1 / cqm=0 / deadzone=21,11 / fast_pskip=0 / chroma_qp_offset=-3 / threads=6 / lookahead_threads=1 / sliced_threads=0 / nr=0 / decimate=1 / interlaced=0 / bluray_compat=0 / constrained_intra=0 / fgo=0 / bframes=8 / b_pyramid=2 / b_adapt=2 / b_bias=0 / direct=3 / weightb=1 / open_gop=0 / weightp=2 / keyint=250 / keyint_min=23 / scenecut=40 / intra_refresh=0 / rc_lookahead=60 / rc=crf / mbtree=0 / crf=16.0000 / qcomp=0.60 / qpmin=0:0:0 / qpmax=69:69:69 / qpstep=4 / vbv_maxrate=62500 / vbv_bufsize=78125 / crf_max=0.0 / nal_hrd=none / filler=0 / ip_ratio=1.35 / pb_ratio=1.25 / aq=1:0.70 / aq-sensitivity=10.00 / aq-factor=1.00:1.00:1.00 / aq2=0 / aq3=0
Язык                                     : English
Default                                  : Да
Forced                                   : Нет
Цветовой диапазон                        : Limited
Основные цвета                           : BT.709
Характеристики трансфера                 : BT.709
Коэффициенты матрицы                     : BT.709
Аудио #1
Идентификатор                            : 2
Формат                                   : AC-3
Формат/Информация                        : Audio Coding 3
Расширение режима                        : CM (complete main)
Параметр Endianness формата              : Big
Идентификатор кодека                     : A_AC3
Продолжительность                        : 1 ч. 51 м.
Вид битрейта                             : Постоянный
Битрейт                                  : 192 Кбит/сек
Каналы                                   : 2 канала
Расположение каналов                     : Front: L R
Частота                                  : 48,0 КГц
Частота кадров                           : 31,250 кадров/сек (1536 spf)
Метод сжатия                             : С потерями
Размер потока                            : 153 Мбайт (2%)
Заголовок                                : Двухголосый закадровый, HTB+
Язык                                     : Russian
Default                                  : Да
Forced                                   : Нет
Аудио #2
Идентификатор                            : 3
Формат                                   : FLAC
Формат/Информация                        : Free Lossless Audio Codec
Идентификатор кодека                     : A_FLAC
Продолжительность                        : 1 ч. 51 м.
Вид битрейта                             : Переменный
Битрейт                                  : 386 Кбит/сек
Каналы                                   : 2 канала
Расположение каналов                     : Front: L R
Частота                                  : 48,0 КГц
Частота кадров                           : 11,719 кадров/сек (4096 spf)
Битовая глубина                          : 16 бит
Размер потока                            : 308 Мбайт (3%)
Библиотека кодирования                   : libFLAC 1.2.1 (UTC 2007-09-17)
Язык                                     : English
Default                                  : Нет
Forced                                   : Нет
Аудио #3
Идентификатор                            : 4
Формат                                   : AAC
Формат/Информация                        : Advanced Audio Codec
Профиль формата                          : LC
Идентификатор кодека                     : A_AAC
Продолжительность                        : 1 ч. 51 м.
Битрейт                                  : 61,9 Кбит/сек
Каналы                                   : 2 канала
Расположение каналов                     : Front: L R
Частота                                  : 48,0 КГц
Частота кадров                           : 46,875 кадров/сек (1024 spf)
Метод сжатия                             : С потерями
Задержка видео                           : 9 мс.
Размер потока                            : 49,4 Мбайт (1%)
Заголовок                                : Commentary
Язык                                     : English
Default                                  : Нет
Forced                                   : Нет
Текст #1
Идентификатор                            : 5
Формат                                   : UTF-8
Идентификатор кодека                     : S_TEXT/UTF8
Идентификатор кодека/Информация          : UTF-8 Plain Text
Продолжительность                        : 1 ч. 48 м.
Битрейт                                  : 35 бит/сек
Count of elements                        : 1075
Размер потока                            : 28,4 Кбайт (0%)
Язык                                     : English
Default                                  : Нет
Forced                                   : Нет
Текст #2
Идентификатор                            : 6
Формат                                   : UTF-8
Идентификатор кодека                     : S_TEXT/UTF8
Идентификатор кодека/Информация          : UTF-8 Plain Text
Продолжительность                        : 1 ч. 48 м.
Битрейт                                  : 39 бит/сек
Count of elements                        : 1250
Размер потока                            : 31,7 Кбайт (0%)
Язык                                     : English
Default                                  : Нет
Forced                                   : Нет
Меню
00:00:00.000                             : en:00:00:00.000
00:04:56.629                             : en:00:04:56.629
00:09:39.577                             : en:00:09:39.577
00:13:45.323                             : en:00:13:45.323
00:18:04.249                             : en:00:18:04.249
00:23:39.500                             : en:00:23:39.500
00:28:38.508                             : en:00:28:38.508
00:32:53.971                             : en:00:32:53.971
00:38:51.454                             : en:00:38:51.454
00:43:24.268                             : en:00:43:24.268
00:48:39.916                             : en:00:48:39.916
00:52:28.103                             : en:00:52:28.103
00:56:41.648                             : en:00:56:41.648
01:03:07.992                             : en:01:03:07.992
01:08:07.500                             : en:01:08:07.500
01:10:37.524                             : en:01:10:37.524
01:17:14.003                             : en:01:17:14.003
01:21:33.721                             : en:01:21:33.721
01:27:07.512                             : en:01:27:07.512
01:32:15.738                             : en:01:32:15.738
01:35:49.326                             : en:01:35:49.326
01:40:39.867                             : en:01:40:39.867
01:44:46.363                             : en:01:44:46.363
01:49:50.000                             : en:01:49:50.000

Скриншоты


_________________
Показать сообщения:    

Текущее время: Сегодня 00:56

Часовой пояс: GMT



Вы не можете начинать темы
Вы не можете отвечать на сообщения
Вы не можете редактировать свои сообщения
Вы не можете удалять свои сообщения
Вы не можете голосовать в опросах
Вы не можете прикреплять файлы к сообщениям
Вы не можете скачивать файлы