Учитель английского / The English Teacher (Крейг Зиск / Craig Zisk) [2013, Комедия, WEB-DLRip] VO (humbert sound studio) :: Ивановский Торрент трекер
Важное объявление!
У Нас Все раздачи мультитрекерные, при нуле пиров в релизах, можете смело вставать на закачку!
Статистика раздачи
Размер:     |    Зарегистрирован:     |    Скачан:     |   
Нет
 
     
 
 
Автор Сообщение

димитри37

Стаж:
4 года 3 месяца
Сообщений:
1236

Репутация: 127

[+] [-]
Вне форума [Профиль] [ЛС]

Учитель английского / The English Teacher
Страна: США
Жанр: Комедия
Год выпуска: 2013
Продолжительность: 01:32:02
Озвучка: Одноголосый закадровый от humbert sound studio
Перевод: algambra, doomsyear, vanilla_cake, Rozito (Notabenoid)
Cубтитры: нет
Режиссер: Крейг Зиск / Craig Zisk
В ролях: Джулианна Мур, Майкл Ангарано, Грег Киннер, Лили Коллинз, Нейтан Лейн, Никки Блонски, Фиона Шоу, Джессика Хехт, Чарли Сэкстон, Эрин Вильхельми
Описание: Линда Синклер — учительница английского языка в средней школе маленького городка Кингстон, штат Пенсильвания. Линда вкладывает душу в свой предмет и ученикам нравятся её уроки, но она одинока, жизнь её размеренна и лишена ярких событий. Когда её бывший ученик Джейсон Шервуд возвращается домой из Нью-Йорка, не добившись успеха на поприще драматурга, Линда убеждает его поставить пьесу в родной школе. Но строгий отец Джейсона, доктор Том Шервуд, настаивает, чтобы сын поступил в юридическую школу...
КИНОПОИСК IMDB
Сэмпл (77 мб)
Качество видео: WEB-DLRip
Формат видео: MKV
Видео: Mpeg4-AVC, 1280*528 (2,40:1), 23,976 кадра/сек, 4109 Кбит/сек
Аудио: AC-3, 2 канала, 48,0 КГц, 224 Кбит/сек

Цензура


Сцены насилия: [0/10] Отсутствуют
Эротические сцены: [1/10] Присутствуют не значительно
Не нормативная лексика: [1/10] Присутствует не значительно
Предоставленные цифры являются личным мнением humbert sound studio.
Приятного Вам просмотра!

MediaInfo

Общее
Уникальный идентификатор : 123694985618938341846450854575373214912 (0x5D0EC9A539FB5DDF52FC15F1EC12E4C0)
Полное имя : G:\Мир кино\The.English.Teacher.2013.WebDLRip.720.(VO.humbertsoundstudio).mkv
Формат : Matroska
Версия формата : Version 2
Размер файла : 2,79 Гбайт
Продолжительность : 1 ч. 32 м.
Общий поток : 4337 Кбит/сек
Программа кодирования : Lavf52.94.0
Библиотека кодирования : Lavf52.94.0
Видео
Идентификатор : 1
Формат : AVC
Формат/Информация : Advanced Video Codec
Профиль формата : High@L3.1
Параметр CABAC формата : Да
Параметр ReFrames формата : 2 кадра
Идентификатор кодека : V_MPEG4/ISO/AVC
Продолжительность : 1 ч. 32 м.
Битрейт : 4109 Кбит/сек
Ширина : 1280 пикселей
Высота : 528 пикселей
Соотношение сторон : 2,40:1
Режим частоты кадров : Постоянный
Частота кадров : 23,976 кадра/сек
Цветовое пространство : YUV
Субдискретизация насыщенности : 4:2:0
Битовая глубина : 8 бит
Тип развёртки : Прогрессивная
Бит/(Пиксели*Кадры) : 0.254
Размер потока : 2,59 Гбайт (93%)
Библиотека кодирования : x264 core 112 r1834 a51816a
Настройки программы : cabac=1 / ref=2 / deblock=1:0:0 / analyse=0x3:0x113 / me=hex / subme=6 / psy=1 / psy_rd=1.00:0.00 / mixed_ref=0 / me_range=16 / chroma_me=1 / trellis=0 / 8x8dct=1 / cqm=0 / deadzone=21,11 / fast_pskip=1 / chroma_qp_offset=-2 / threads=4 / sliced_threads=0 / nr=0 / decimate=1 / interlaced=0 / constrained_intra=0 / bframes=3 / b_pyramid=0 / b_adapt=1 / b_bias=0 / direct=3 / weightb=1 / open_gop=0 / weightp=2 / keyint=250 / keyint_min=25 / scenecut=40 / intra_refresh=0 / rc_lookahead=40 / rc=2pass / mbtree=1 / bitrate=4109 / ratetol=1.0 / qcomp=0.60 / qpmin=10 / qpmax=51 / qpstep=4 / cplxblur=20.0 / qblur=0.5 / ip_ratio=1.41 / aq=1:1.00
Default : Да
Forced : Нет
Аудио
Идентификатор : 2
Формат : AC-3
Формат/Информация : Audio Coding 3
Расширение режима : CM (complete main)
Параметр Endianness формата : Big
Идентификатор кодека : A_AC3
Продолжительность : 1 ч. 32 м.
Вид битрейта : Постоянный
Битрейт : 224 Кбит/сек
Каналы : 2 канала
Расположение каналов : Front: L R
Частота : 48,0 КГц
Битовая глубина : 16 бит
Метод сжатия : С потерями
Размер потока : 147 Мбайт (5%)
Default : Да
Forced : Нет

Скриншот c названием фильма

Скриншоты

Показать сообщения:    

Текущее время: Сегодня 08:57

Часовой пояс: GMT



Вы не можете начинать темы
Вы не можете отвечать на сообщения
Вы не можете редактировать свои сообщения
Вы не можете удалять свои сообщения
Вы не можете голосовать в опросах
Вы не можете прикреплять файлы к сообщениям
Вы не можете скачивать файлы