Ивановский Торрент трекер
Яндекс.Погода
 

[Цитировать]
HUNTER

Учимся танцевать. Латина- Год выпуска: 2004
Страна: Россия
Сайт производителя: отсутствует
Тематика: Танцы
Тип материала: Обучающее видео
Продолжительность: 00:56:46
Автор: Райз Мультимедиа
Язык: Русский
Субтитры: отсутствуют-Описание: Эта программа заинтересует тех, кто ценит возможность выплеснуть эмоции, проявить чувственность и темперамент. Высокая скорость, безумное переплетение рук, головокружительные повороты партнеров сочетаются с зажигательными мелодиями и свободной работой бёдер и тела. Танцевать можно в одиночку, в паре и даже несколькими парами одновременно, при этом периодически меняясь партнерами.
В этом фильме мы разучим три танца: салсу, румбу и самбу.
САЛЬСА - довольно простой танец, т.к. не надо заучивать сложные схемы, можно комбинировать те или иные движение в любом порядке.
САМБУ часто называют "южноамериканским вальсом", ее ритмы хороню знакомы каждому и легко видоизменяются, образовывая новые танцы - ламбаду, макарену...
РУМБА - это медленный - ганец, который характеризуется чувственными, наполненными страстью движениями и жестами, являясь как бы интерпретацией отношений между мужчиной и женщиной.
Ритмы латино поднимут настроение уже с первых минут урока! Почувствуйте свободу движений и природную грацию своего тела. Танец должен приносить радость, удовольствие и чувство комфорта.
-Качество: DVDRip
Формат: AVI
Видео кодек: DivX
Аудио кодек: AC3
Видео: 720x576 (1.25:1), 25 fps, DivX Codec 5.x or 6.x, 0.106 Бит/(Пиксели*Кадры)
Аудио: 48 kHz, AC3 Dolby Digital, 3 ch, 448.00 kbps avg-

MediaInfo

[code]Общее
Полное имя : E:\Обучение\Учимся танцевать. Латина.avi
Формат : DivX
Формат/Информация : Hack of AVI
Размер файла : 632 Мбайт
Продолжительность : 56 м.
Общий поток : 1558 Кбит/сек
Видео
Идентификатор : 0
Формат : MPEG-4 Visual
Параметр BVOP формата : 1
Параметр QPel формата : Нет
Параметр GMC формата : Без точки перехода
Параметр матрицы формата : Default (H.263)
Режим смешивания : Сжатый битовый поток
Идентификатор кодека : DX50
Идентификатор кодека/Подсказка : DivX 5
Продолжительность : 56 м.
Битрейт : 1100 Кбит/сек
Ширина : 720 пикселей
Высота : 576 пикселей
Соотношение сторон : 5:4
Частота кадров : 25,000 кадров/сек
Стандарт вещания : PAL
Цветовое пространство : YUV
Субдискретизация насыщенности : 4:2:0
Битовая глубина : 8 бит
Тип развёртки : Прогрессивная
Метод сжатия : С потерями
Бит/(Пиксели*Кадры) : 0.106
Размер потока : 447 Мбайт (71%)
Заголовок : Main
Библиотека кодирования : DivX 6.2.5 (UTC 2006-07)
Аудио
Идентификатор : 1
Формат : AC-3
Формат/Информация : Audio Coding 3
Расширение режима : CM (complete main)
Параметр Endianness формата : Big
Идентификатор кодека : 2000
Продолжительность : 56 м.
Вид битрейта : Постоянный
Битрейт : 448 Кбит/сек
Каналы : 4 канала
Расположение каналов : Front: L C R, LFE
Частота : 48,0 КГц
Битовая глубина : 16 бит
Метод сжатия : С потерями
Размер потока : 182 Мбайт (29%)
Выравнивание : Разделение по промежуткам
Продолжительность промежутка : 40 мс. (1,00 видеокадр)
Время предзагрузки промежутка : 500 мс.
Заголовок : Audio
- -


Показать сообщения:    

Текущее время: 15-Дек 18:12

Часовой пояс: UTC ± 0


Вы не можете начинать темы
Вы не можете отвечать на сообщения
Вы не можете редактировать свои сообщения
Вы не можете удалять свои сообщения
Вы не можете голосовать в опросах
Вы не можете прикреплять файлы к сообщениям
Вы не можете скачивать файлы

!ВНИМАНИЕ!
Сайт не предоставляет электронные версии произведений, а занимается лишь коллекционированием и каталогизацией ссылок, присылаемых и публикуемых на форуме нашими читателями. Если вы являетесь правообладателем какого-либо представленного материала и не желаете, чтобы ссылка на него находилась в нашем каталоге, свяжитесь с нами, и мы незамедлительно удалим ее. Файлы для обмена на трекере предоставлены пользователями сайта, и администрация не несет ответственности за их содержание. Просьба не заливать файлы, защищенные авторскими правами, а также файлы нелегального содержания!