Ивановский Торрент трекер
Яндекс.Погода
 

[Цитировать]
HUNTER

Учимся рисовать ---Режиссёр Роберт Саакянц
Год выпуска: 2009
Производство: Россия
Жанр: Обучающий мультфильм
Продолжительность: 00:14:40
Перевод: Дублированный--Описание:
Данное видео поможет Вашему ребёнку учиться рисовать самостоятельно. Герои мультфильма обучают детишек рисовать с азов.--Качество: DVDRip
Формат: AVI
Видеокодек: Xvid
Аудиокодек: MP3
Видео: 656x496 (1.32:1), 25 fps, XviD build 46 ~907 kbps avg, 0.11 bit/pixell
Аудио: 48 kHz, MPEG Layer 3, 2 ch, ~128.00 kbps avg--
--

MediaInfo

Код: copyText_writeLink('this.parentNode.parentNode.nextSibling.nextSibling'); Формат : AVI
Формат/Информация : Audio Video Interleave
Размер файла : 110 Мбайт
Продолжительность : 14 м.
Общий поток : 1045 Кбит/сек
Программа кодирования : transcode-1.1.4
Видео
Идентификатор : 0
Формат : MPEG-4 Visual
Профиль формата : Advanced Simple@L5
Параметр BVOP формата : 1
Параметр QPel формата : Нет
Параметр GMC формата : Без точки перехода
Параметр матрицы формата : Default (H.263)
Идентификатор кодека : XVID
Идентификатор кодека/Подсказка : XviD
Продолжительность : 14 м.
Битрейт : 907 Кбит/сек
Ширина : 656 пикселей
Высота : 496 пикселей
Соотношение сторон : 4:3
Частота кадров : 25,000 кадров/сек
Цветовое пространство : YUV
Субдискретизация насыщенности : 4:2:0
Битовая глубина : 8 бит
Тип развёртки : Прогрессивная
Метод сжатия : С потерями
Бит/(Пиксели*Кадры) : 0.112
Размер потока : 95,3 Мбайт (87%)
Библиотека кодирования : XviD 1.1.2 (UTC 2006-11-01)
Аудио
Идентификатор : 1
Формат : MPEG Audio
Версия формата : Version 1
Профиль формата : Layer 3
Режим : Joint stereo
Идентификатор кодека : 55
Идентификатор кодека/Подсказка : MP3
Продолжительность : 14 м.
Вид битрейта : Постоянный
Битрейт : 128 Кбит/сек
Каналы : 2 канала
Частота : 48,0 КГц
Метод сжатия : С потерями
Размер потока : 13,4 Мбайт (12%)
Выравнивание : Разделение по промежуткам
Продолжительность промежутка : 40 мс. (1,00 видеокадр)
--
Пожалуйста, оставайтесь на раздаче как можно дольше--
Показать сообщения:    

Текущее время: 23-Сен 15:37

Часовой пояс: UTC - 1


Вы не можете начинать темы
Вы не можете отвечать на сообщения
Вы не можете редактировать свои сообщения
Вы не можете удалять свои сообщения
Вы не можете голосовать в опросах
Вы не можете прикреплять файлы к сообщениям
Вы не можете скачивать файлы

!ВНИМАНИЕ!
Сайт не предоставляет электронные версии произведений, а занимается лишь коллекционированием и каталогизацией ссылок, присылаемых и публикуемых на форуме нашими читателями. Если вы являетесь правообладателем какого-либо представленного материала и не желаете, чтобы ссылка на него находилась в нашем каталоге, свяжитесь с нами, и мы незамедлительно удалим ее. Файлы для обмена на трекере предоставлены пользователями сайта, и администрация не несет ответственности за их содержание. Просьба не заливать файлы, защищенные авторскими правами, а также файлы нелегального содержания!