Ивановский Торрент трекер
Яндекс.Погода
 

[Цитировать]
HUNTER

Училка

«Она приняла решение…»
- Страна: Россия
Жанр: Драма
Год выпуска: 2015
Продолжительность: 02:06:55
-Перевод: Не требуется
Оригинальная аудиодорожка: русский
Cубтитры: нет
-Режиссер: Алексей Петрухин-В ролях: Ирина Купченко, Анна Чурина, Роза Хайруллина, Андрей Мерзликин, Алиса Гребенщикова, Ольга Егорова, Анастасия Пономарева, Дарья Дубникова, Акмал Аблаев, Алексей Лукин, Валентин Садики, Василиса Елпатьевская, Марк Тюриков, Алексей Огурцов, Руслан Калимуллин-Описание: Внезапную тишину школьных коридоров оглашает выстрел. Доведенная до крайности учительница истории берет в заложники целый класс. Но вскоре ситуация в корне меняется и заложницей становится она сама…-Релиз-группа: - -Тип релиза: WEB-DL 1080p
Контейнер: MKV-Видео: MPEG-4 AVC, 1920x1080 (16:9), 25.000 fps, 6116 Kbps
Аудио: 48 kHz, AC3 Dolby Digital, 3/2 (L,C,R,l,r) + LFE ch, ~384 kbps

MediaInfo

General
Complete name : Downloads\Uchilka.2016.1080p.WEB-DL.Rus.HDCLUB.mkv
Format : Matroska
Format version : Version 4 / Version 2
File size : 46.4 MiB
Duration : 58s 640ms
Overall bit rate : 6 632 Kbps
Movie name : MoreFilms
Encoded date : UTC 2016-10-15 19:17:47
Writing application : mkvmerge v9.4.2 ('So High') 64bit
Writing library : libebml v1.3.4 + libmatroska v1.4.5
DURATION : 00:00:58.624000000
NUMBER_OF_FRAMES : 1832
NUMBER_OF_BYTES : 2813952
_STATISTICS_WRITING_APP : mkvmerge v9.4.2 ('So High') 64bit
_STATISTICS_WRITING_DATE_UTC : 2016-10-15 19:17:47
_STATISTICS_TAGS : BPS DURATION NUMBER_OF_FRAMES NUMBER_OF_BYTES
Video #1
ID : 1
Format : AVC
Format/Info : Advanced Video Codec
Format profile : High@L4.0
Format settings, CABAC : Yes
Format settings, ReFrames : 4 frames
Codec ID : V_MPEG4/ISO/AVC
Duration : 58s 640ms
Bit rate : 6 116 Kbps
Width : 1 920 pixels
Height : 1 080 pixels
Display aspect ratio : 16:9
Frame rate mode : Constant
Frame rate : 25.000 fps
Color space : YUV
Chroma subsampling : 4:2:0
Bit depth : 8 bits
Scan type : Progressive
Bits/(Pixel*Frame) : 0.118
Stream size : 42.8 MiB (92%)
Language : English
Default : Yes
Forced : No
Color primaries : BT.709
Transfer characteristics : BT.709
Matrix coefficients : BT.709
Color range : Limited
Audio #2
ID : 2
Format : AC-3
Format/Info : Audio Coding 3
Mode extension : CM (complete main)
Format settings, Endianness : Big
Codec ID : A_AC3
Duration : 58s 640ms
Bit rate mode : Constant
Bit rate : 384 Kbps
Channel(s) : 6 channels
Channel positions : Front: L C R, Side: L R, LFE
Sampling rate : 48.0 KHz
Bit depth : 16 bits
Compression mode : Lossy
Delay relative to video : 16ms
Stream size : 2.68 MiB (6%)
Language : Russian
Default : Yes
Forced : No

Скриншоты

Показать сообщения:    

Текущее время: 23-Сен 15:33

Часовой пояс: UTC - 1


Вы не можете начинать темы
Вы не можете отвечать на сообщения
Вы не можете редактировать свои сообщения
Вы не можете удалять свои сообщения
Вы не можете голосовать в опросах
Вы не можете прикреплять файлы к сообщениям
Вы не можете скачивать файлы

!ВНИМАНИЕ!
Сайт не предоставляет электронные версии произведений, а занимается лишь коллекционированием и каталогизацией ссылок, присылаемых и публикуемых на форуме нашими читателями. Если вы являетесь правообладателем какого-либо представленного материала и не желаете, чтобы ссылка на него находилась в нашем каталоге, свяжитесь с нами, и мы незамедлительно удалим ее. Файлы для обмена на трекере предоставлены пользователями сайта, и администрация не несет ответственности за их содержание. Просьба не заливать файлы, защищенные авторскими правами, а также файлы нелегального содержания!