Уходя в отрыв / Вырваться вперед / Breaking Away (Питер Йетс / Peter Yates) [1979, США, Мелодрама, комедия, HDTV 1080i] MVO (1 канал) + Sub Rus, Eng + Original Eng :: Ивановский Торрент трекер
Важное объявление!
У Нас Все раздачи мультитрекерные, при нуле пиров в релизах, можете смело вставать на закачку!
Статистика раздачи
Размер:     |    Зарегистрирован:     |    Скачан:     |   
Нет
 
     
 
 
Автор Сообщение

HUNTER

Стаж:
4 года 11 месяцев
Сообщений:
66054

Репутация: 101

[+] [-]
Вне форума [Профиль] [ЛС]

Уходя в отрыв / Вырваться вперед / Breaking Away
Страна: США
Жанр: Мелодрама, комедия
Год выпуска: 1979
Продолжительность: 01:36:06
Перевод: Профессиональный (многоголосый закадровый) 1 канал
Cубтитры: русские, английские
Оригинальная аудиодорожка: английский
Режиссер: Питер Йетс / Peter Yates
В ролях: Деннис Кристофер, Деннис Куэйд, Дэниел Стерн, Джеки Эрл Хейли, Барбара Барри, Пол Дули, Робин Дугласс, Харт Бокнер, Эми Райт, Питер Мэлоуни
Описание: Компания двадцатилетних романтиков делают все, что можно, лишь бы избежать нависшей над ними угрозы взросления.
Доп.информация: Рип с канала Первый HD. Из видеоряда удален логотип канала и все послерекламные вставки с названием фильма.
Доп. информация: Запись с канала Первый HD. Из видеоряда удалены все послерекламные вставки, добавлена английская дорожка и субтитры. Перепаковано в mkv.
Сэмпл: http://multi-up.com/1090062
Тип релиза: HDTV 1080i
Контейнер: MKV
Видео: AVC, 1920x1080 (16:9), 25.000 fps, 11.7 Mbps (0.225 bit/pixel)
Аудио: AC-3, 48.0 KHz, 2 ch, 192 Kbps, CBR (Russian) - русский
Аудио 2: AC-3, 48.0 KHz, 2 ch, 192 Kbps, CBR (English) - английский
Формат субтитров: softsub (SRT)

MediaInfo

Общее
Уникальный идентификатор : 214435226411117926651246713556014444109 (0xA152B8ED164FB470AB9FE9CF8A8FAE4D)
Полное имя : N:\Уходя в отрыв.mkv
Формат : Matroska
Версия формата : Version 2
Размер файла : 8,29 Гбайт
Продолжительность : 1 ч. 36 м.
Общий поток : 12,3 Мбит/сек
Дата кодирования : UTC 2016-02-21 19:03:17
Программа кодирования : mkvmerge v8.2.0 ('World of Adventure') 64bit
Библиотека кодирования : libebml v1.3.1 + libmatroska v1.4.2
Видео
Идентификатор : 1
Формат : AVC
Формат/Информация : Advanced Video Codec
Профиль формата : Main@L4
Параметр CABAC формата : Да
Параметр ReFrames формата : 3 кадра
Идентификатор кодека : V_MPEG4/ISO/AVC
Продолжительность : 1 ч. 36 м.
Битрейт : 11,7 Мбит/сек
Ширина : 1920 пикселей
Высота : 1080 пикселей
Соотношение сторон : 16:9
Режим частоты кадров : Постоянный
Частота кадров : 25,000 кадров/сек
Стандарт вещания : Component
Цветовое пространство : YUV
Субдискретизация насыщенности : 4:2:0
Битовая глубина : 8 бит
Тип развёртки : Чересстрочная
Метод сохранения типа развёртки : Раздельные поля
Порядок развёртки : Верхнее поле первое
Бит/(Пиксели*Кадры) : 0.225
Размер потока : 7,87 Гбайт (95%)
Заголовок : Уходя в отрыв / Вырваться вперед / Breaking Away (1979)
Язык : English
Default : Да
Forced : Нет
Цветовой диапазон : Limited
Основные цвета : BT.709
Характеристики трансфера : BT.709
Коэффициенты матрицы : BT.709
Аудио #1
Идентификатор : 2
Формат : AC-3
Формат/Информация : Audio Coding 3
Расширение режима : CM (complete main)
Параметр Endianness формата : Big
Идентификатор кодека : A_AC3
Продолжительность : 1 ч. 36 м.
Вид битрейта : Постоянный
Битрейт : 192 Кбит/сек
Каналы : 2 канала
Расположение каналов : Front: L R
Частота : 48,0 КГц
Частота кадров : 31,250 кадров/сек (1536 spf)
Метод сжатия : С потерями
Размер потока : 133 Мбайт (2%)
Заголовок : Профессиональный (многоголосый закадровый) 1 канал
Язык : Russian
Default : Да
Forced : Нет
Аудио #2
Идентификатор : 3
Формат : AC-3
Формат/Информация : Audio Coding 3
Расширение режима : CM (complete main)
Параметр Endianness формата : Big
Идентификатор кодека : A_AC3
Продолжительность : 1 ч. 36 м.
Вид битрейта : Постоянный
Битрейт : 192 Кбит/сек
Каналы : 2 канала
Расположение каналов : Front: L R
Частота : 48,0 КГц
Частота кадров : 31,250 кадров/сек (1536 spf)
Метод сжатия : С потерями
Размер потока : 133 Мбайт (2%)
Заголовок : Английский
Язык : English
Default : Нет
Forced : Нет
Текст #1
Идентификатор : 4
Формат : UTF-8
Идентификатор кодека : S_TEXT/UTF8
Идентификатор кодека/Информация : UTF-8 Plain Text
Заголовок : русский
Язык : Russian
Default : Нет
Forced : Нет
Текст #2
Идентификатор : 5
Формат : UTF-8
Идентификатор кодека : S_TEXT/UTF8
Идентификатор кодека/Информация : UTF-8 Plain Text
Заголовок : английский
Язык : English
Default : Нет
Forced : Нет

Скриншоты



_________________
Показать сообщения:    

Текущее время: Сегодня 03:54

Часовой пояс: GMT



Вы не можете начинать темы
Вы не можете отвечать на сообщения
Вы не можете редактировать свои сообщения
Вы не можете удалять свои сообщения
Вы не можете голосовать в опросах
Вы не можете прикреплять файлы к сообщениям
Вы не можете скачивать файлы