Важное объявление!
У Нас Все раздачи мультитрекерные, при нуле пиров в релизах, можете смело вставать на закачку!
Статистика раздачи
Размер:     |    Зарегистрирован:     |    Скачан:     |   
Нет
 
     
 
 
Автор Сообщение

HUNTER

Стаж:
5 лет
Сообщений:
68415

Репутация: 101

[+] [-]
Вне форума [Профиль] [ЛС]

Утренний патруль / The Dawn Patrol
Страна: США
Студия: Warner Bros. Pictures
Жанр: драма, военный
Год выпуска: 1938
Продолжительность: 01:42:40
Перевод: Студийный (одноголосый закадровый) Рен ТВ
Cубтитры: русские, английские (обычные, SDH)
Оригинальная аудиодорожка: английский
Режиссер: Эдмунд Гулдинг / Edmund Goulding
В ролях: Эррол Флинн, Бэзил Рэтбоун, Дэвид Нивен, Дональд Крисп, Мелвилл Купер, Бэрри Фицджералд, Карл Эсмонд, Питер Уиллз, Мортон Лоури, Майкл Брук
Описание: Первая мировая война. Лётчик 59-ой эскадрильи, капитан Кортни, постоянно критикует своего командира, майора Брэнда. По его мнению, майор бездушно толкает в бой едва прошедших обучение юнцов, используя самолёты, которые давно следовало списать. Однако после отчаянного налёта, предпринятого Кортни и его другом, лейтенантом Скоттом, Брэнд получает повышение по службе и на своё место назначает непримиримого бунтаря. Теперь Кортни самому приходиться разрываться между приказами начальства и стремлением во что бы то ни стало сохранить жизнь своим подчинённым.
Доп. информация: За русскую дорожку спасибо palmeiras, за русские субтитры спасибо -Iskander-

Sample
Тип релиза: WEB-DL 720p - SbR
Контейнер: MKV
Видео: MPEG4 AVC Video, H264, 4:3, 982x720, 23.976 fps, 3993 kbps
Аудио: Russian (AC3, 2 ch, 192 kbps, 16 bits, 48.0 KHz) - Рен ТВ
Аудио 2: English (AC3, 1 ch, 192 kbps, 16 bits, 48.0 KHz) - оригинал DVD R1
Аудио 3: English (AAC, 2 ch, 121 kbps, 16 bits, 48.0 KHz) - оригинал WEB-DL
Формат субтитров: softsub (SRT)

MediaInfo

General
Unique ID : 218154194982059834953236441958285827581 (0xA41EF83BB370E3F8919FEBAD4923DDFD)
Complete name : K:\The Dawn Patrol 1938 WEB-DL 720p.mkv
Format : Matroska
Format version : Version 4 / Version 2
File size : 3.29 GiB
Duration : 1h 42mn
Overall bit rate : 4 586 Kbps
Encoded date : UTC 2015-08-27 09:14:55
Writing application : mkvmerge v6.1.0 ('Old Devil') built on Mar 2 2013 14:32:37
Writing library : libebml v1.3.0 + libmatroska v1.4.0
Video
ID : 1
Format : AVC
Format/Info : Advanced Video Codec
Format profile : High@L3.1
Format settings, CABAC : No
Format settings, ReFrames : 2 frames
Codec ID : V_MPEG4/ISO/AVC
Duration : 1h 42mn
Width : 982 pixels
Height : 720 pixels
Display aspect ratio : 4:3
Frame rate mode : Constant
Frame rate : 23.976 fps
Color space : YUV
Chroma subsampling : 4:2:0
Bit depth : 8 bits
Scan type : Progressive
Language : English
Default : Yes
Forced : No
Color primaries : BT.709
Transfer characteristics : BT.709
Matrix coefficients : BT.709
Audio #1
ID : 2
Format : AC-3
Format/Info : Audio Coding 3
Mode extension : CM (complete main)
Format settings, Endianness : Big
Codec ID : A_AC3
Duration : 1h 42mn
Bit rate mode : Constant
Bit rate : 192 Kbps
Channel count : 2 channels
Channel positions : Front: L R
Sampling rate : 48.0 KHz
Bit depth : 16 bits
Compression mode : Lossy
Stream size : 141 MiB (4%)
Language : Russian
Default : Yes
Forced : No
Audio #2
ID : 3
Format : AC-3
Format/Info : Audio Coding 3
Mode extension : CM (complete main)
Format settings, Endianness : Big
Codec ID : A_AC3
Duration : 1h 42mn
Bit rate mode : Constant
Bit rate : 192 Kbps
Channel count : 1 channel
Channel positions : Front: C
Sampling rate : 48.0 KHz
Bit depth : 16 bits
Compression mode : Lossy
Stream size : 141 MiB (4%)
Title : DVD
Language : English
Default : No
Forced : No
Audio #3
ID : 4
Format : AAC
Format/Info : Advanced Audio Codec
Format profile : LC
Codec ID : A_AAC
Duration : 1h 42mn
Channel count : 2 channels
Channel positions : Front: L R
Sampling rate : 48.0 KHz
Compression mode : Lossy
Language : English
Default : No
Forced : No
Text #1
ID : 5
Format : UTF-8
Codec ID : S_TEXT/UTF8
Codec ID/Info : UTF-8 Plain Text
Language : Russian
Default : No
Forced : No
Text #2
ID : 6
Format : UTF-8
Codec ID : S_TEXT/UTF8
Codec ID/Info : UTF-8 Plain Text
Language : English
Default : No
Forced : No
Text #3
ID : 7
Format : UTF-8
Codec ID : S_TEXT/UTF8
Codec ID/Info : UTF-8 Plain Text
Title : SDH
Language : English
Default : No
Forced : No
Menu
00:00:00.000 : en:Credits.
00:00:55.000 : en:Rotten job.
00:05:24.000 : en:Not blaming anyone.
00:11:03.000 : en:No matter how you write it.
00:14:49.000 : en:New orders.
00:17:56.000 : en:Imagine.
00:20:52.000 : en:Replacements.
00:27:26.000 : en:Toasting Scott.
00:33:12.000 : en:Toasting the dead.
00:36:23.000 : en:Back from the beyond.
00:40:39.000 : en:Car and chauffeur.
00:43:18.000 : en:Von Richter's challenge.
00:47:12.000 : en:Two-man raid.
00:52:33.000 : en:Under enemy attack.
00:56:00.000 : en:New commander.
00:59:57.000 : en:Younger brother.
01:04:02.000 : en:Every man flies.
01:08:32.000 : en:Noisy, stupid fun.
01:11:51.000 : en:Aloft at dawn.
01:14:13.000 : en:You killed him.
01:18:19.000 : en:Suicide mission.
01:23:01.000 : en:Toasting the job.
01:28:20.000 : en:Enemy targets.
01:34:46.000 : en:Flyboy salute.
01:37:24.000 : en:Gentleman's keepsakes.
01:40:20.000 : en:You new men.
01:42:08.000 : en:Cast List.

Скриншоты


_________________
Показать сообщения:    

Текущее время: Сегодня 10:57

Часовой пояс: GMT



Вы не можете начинать темы
Вы не можете отвечать на сообщения
Вы не можете редактировать свои сообщения
Вы не можете удалять свои сообщения
Вы не можете голосовать в опросах
Вы не можете прикреплять файлы к сообщениям
Вы не можете скачивать файлы